//TJADB Project
TITLE:Monitoring
TITLEJA:モニタリング
SUBTITLE:--DECO*27 feat. Hatsune Miku
SUBTITLEJA:DECO*27 feat. 初音ミク
BPM:132
WAVE:Monitoring.ogg
OFFSET:-3.173
DEMOSTART:40.654 //shinuchi:
11740/7620/3350/2310

COURSE:Oni
LEVEL:8
BALLOON:
SCOREINIT:720,2370
SCOREDIFF:200
#START
2000200020101110,
1000101102202020,
1000101100202020,
1010110220220220,
1110101100202020, //5
1000101102202020,
1000101100202020,
1010110220220200,
1010101100202000,
1011202010021020,
1010200020021020,
1011202010021020,
1010102020101110, //13
1000201102211220,
1120201100202220,
1120210120220110,
1122101102202222,
1011210102201020,
1011210102201020,
1000102210110220,
100000200200000200200000100000500000000008000000, //21
#GOGOSTART
3011201110011020,
1010201110112110,
1022102210110020,
1010201110221220,
1001122110011221,
1011202200001020,
1001102210011020,
300000300000400000100100000000500000000008000000, //29
3011201110011020,
1010201110112110,
1022102210110020,
1010201110221220,
1001122110011221,
1011202200001020,
1001102210011020,
3030401100201120, //37
1000201102211220,
1120201100202220,
1120211220220220,
1121101102202222,
1011221102202020,
1011221102202020,
1000202210110220,
3030401100000000,
#GOGOEND
0, //46
#END

COURSE:Hard
LEVEL:6
BALLOON:
SCOREINIT:800,3470
SCOREDIFF:240
#START
2220,
1000101100002000,
1000101100002000,
1000100220220000,
1000101100002000, //5
1000101100002000,
1000101100002000,
1000100220220000,
1000101100202000,
1000200010011020,
1000100020022020,
1000200010011020,
10122110, //13
1000101100202000,
1000101100202000,
1000100220220020,
1010101100202000,
1011010100202000,
1011010100202000,
1000100010220220,
100000200200000200200000000000500000000008000000, //21
#GOGOSTART
3000201010011020,
1010201010011020,
1000200010011020,
1000201010110020,
1001102010011020,
1010102200001020,
1001102010011020,
300000300000300000100100000000500000000008000000, //29
3000201010011020,
1010201010011020,
1000200010011020,
1000201010110020,
1001102010011020,
1010102200001020,
1001102010011020,
3030301100202000, //37
1000101100202000,
1000101100202000,
1000100220220020,
1010101100202000,
1011010100202000,
1011010100202000,
1000100010220220,
3030301100000000,
#GOGOEND
0, //46
#END

COURSE:Normal
LEVEL:4
BALLOON:
SCOREINIT:1230,8120
SCOREDIFF:605
#START
0,
1100,
1100,
22,
1100, //5
1100,
1100,
22,
1100,
1011,
22,
1011,
22, //13
1102,
1102,
1120,
500000000000000000000008000000000000000000000000,
1120,
1120,
1110,
1, //21
#GOGOSTART
30111020,
2012,
1110,
1012,
22,
10102011,
10111020,
3300, //29
30111020,
2012,
1110,
1012,
22,
10102011,
10111020,
3300, //37
1120,
1120,
1011,
500000000000000000000008000000000000000000000000,
1122,
1122,
1011,
3300,
#GOGOEND
0, //46
#END

COURSE:Easy
LEVEL:2
BALLOON:
SCOREINIT:1110,12980
SCOREDIFF:913
#START
0,
1,
1,
22,
1, //5
1,
1,
22,
1,
11,
2,
11,
2, //13
1100,
1100,
22,
500000000000000000000008000000000000000000000000,
12,
12,
11,
1, //21
#GOGOSTART
3110,
22,
1110,
11,
22,
2,
11,
3300, //29
3110,
22,
1110,
11,
22,
2,
11,
3300, //37
1100,
1100,
22,
500000000000000000000008000000000000000000000000,
1100,
1100,
22,
3300,
#GOGOEND
0, //46
#END
