//TJADB Project
TITLE:Konton Boogie
TITLEJA:混沌ブギ
SUBTITLE:--jon-YAKITORY feat. Hatsune Miku
SUBTITLEJA:jon-YAKITORY feat. 初音ミク
BPM:190
WAVE:Konton Boogie.ogg
OFFSET:-0.713
DEMOSTART:61.346 //shinuchi:
4170/2580/1680/1070

COURSE:Oni
LEVEL:8
BALLOON:10,10,10,20
SCOREINIT:350,1120
SCOREDIFF:75
#START
10101110,
10101110,
10101011,
10112220,
10101110,
10101110,
1122,
1000002022222000, //8
#GOGOSTART
1120112010111020,
1120112010111020,
1000111110202011,
1020201110202000,
1120112010111020,
1120112010111020,
1120102011102010,
700000000000000000000000000000000008000000000000, //16
3000112010201110,
1000112010202210,
1000112010201110,
100000000000100000000000500000000000000008000000,
1000112010201110,
1000112010202210,
1000112010201110,
1022112022101000, //24
#GOGOEND
1212,
11210221,
1212,
11220222,
1212,
11210221,
10201025,
000000000000000000000008000000000000200000200000, //32
1010222010102220,
11222021,
1010222010102220,
11221202,
1010222010102220,
11222020,
10121010,
10011020, //40
1020200020002022,
22222000,
1020200020002022,
22222000,
1020200020002022,
1020202210201020,
500000000000000000000000000000000000000008000000,
1, //48
#GOGOSTART
1120112010111020,
1120112010111020,
1000111110202011,
1020201110202000,
1120112010111020,
1120112010111020,
1110202011102000,
30033440, //56
1120112010111020,
1120112010111020,
1000111110202011,
1020201110202000,
1120112010111020,
1120112010111020,
1110202011102010,
700000000000000000000000000000000008000000000000, //64
3020112010201120,
1020112010201120,
1020112010201120,
1020112010000020,
2010221020102210,
2010221020102210,
2010221020102210,
2010221020000000, //72
#GOGOEND
2220,
2220,
22,
2,
2220,
2220,
22,
20004440, //80
#GOGOSTART
1120112010111020,
1120112010111020,
1110222210202011,
2011201110202000,
1120112010111020,
1120112010111020,
1110202011102000,
30233440, //88
1120112010111020,
1120112010111020,
1110222210202011,
2011201110202000,
1120112010111020,
1120112010111020,
1110202011102010,
700000000000000000000000000000000008000000000000, //96
3000112010201110,
1000112010202210,
1000112010201110,
500000000000000000000000000000000000000008000000,
1000112010201110,
1000112010202210,
1120112010001022,
1020102210202000, //104
7,
000000000000000000000008000000000000000000000000,
500000000000000000000000000000000000000000000008,
0,
1010221022102020,
1120112210222020,
2000221022102020,
2210221120100000, //112
#GOGOEND
3000102010201120,
1000102010201120,
1000102010201120,
1000222010201120,
3000102010201120,
1000102010201120,
1000102010201120,
1000222010201120,
0,
0, //122
#END

COURSE:Hard
LEVEL:6
BALLOON:8,8,8,16
SCOREINIT:400,1770
SCOREDIFF:98
#START
1110,
1110,
1110,
2022,
1110,
1110,
1110,
2044, //8
#GOGOSTART
1000100010111010,
1000100010111010,
1000100010001011,
11102220,
1000100010111010,
1000100010111010,
10101111,
700000000000000000000000000000000008000000000000, //16
3000111010101000,
1000111010101000,
1000111010101000,
1110,
1000111010101000,
1000111010101000,
2000222020202000,
2220, //24
#GOGOEND
1111,
11010000,
1111,
20220000,
1111,
11010000,
1150,
000000000000000000000008000000000000000000000000, //32
11101110,
11222000,
11101110,
11222000,
11101110,
11222000,
1111,
10011010, //40
2220,
20222000,
2220,
20222000,
2220,
20222020,
500000000000000000000000000000000000000008000000,
1, //48
#GOGOSTART
1000100010111010,
1000100010111010,
1000100010001011,
11102220,
1000100010111010,
1000100010111010,
1000100011101000,
30203330, //56
1000100010111010,
1000100010111010,
1000100010001011,
11102220,
1000100010111010,
1000100010111010,
10101111,
700000000000000000000000000000000008000000000000, //64
10111011,
10111110,
10111011,
10111000,
10111011,
10111110,
10111011,
10111000, //72
#GOGOEND
22,
2,
22,
2,
22,
2,
2220,
22, //80
#GOGOSTART
1000100010111010,
1000100010111010,
1000100010001011,
11122220,
1000100010111010,
1000100010111010,
1000100011101000,
30203330, //88
1000100010111010,
1000100010111010,
1000100010001011,
11122220,
1000100010111010,
1000100010111010,
10101111,
700000000000000000000000000000000008000000000000, //96
1111,
10111120,
1111,
500000000000000000000000000000000000000008000000,
1111,
10111120,
11101020,
10112220, //104
7,
000000000000000000000008000000000000000000000000,
500000000000000000000000000000000000000000000008,
0,
1000111010101000,
1000111010101000,
2000222020202000,
2022202020000000, //112
#GOGOEND
30101110,
10101110,
10101110,
10102220,
30101110,
10101110,
10101110,
10102220,
0,
0, //122
#END

COURSE:Normal
LEVEL:5
BALLOON:5,5,5,11
SCOREINIT:460,2720
SCOREDIFF:118
#START
11,
1,
11,
1,
11,
1,
11,
1, //8
#GOGOSTART
10101110,
10101110,
1111,
2220,
10101110,
10101110,
10101110,
700000000000000000000000000000000008000000000000, //16
30111010,
10111010,
10111010,
1110,
10111010,
10111010,
20222020,
2220, //24
#GOGOEND
1110,
11000000,
1110,
2200,
1110,
11000000,
1150,
000000000000000000000008000000000000000000000000, //32
1111,
1110,
1111,
1110,
1111,
1110,
1110,
11, //40
22,
2220,
22,
2220,
22,
2220,
500000000000000000000000000000000000000000000008,
0, //48
#GOGOSTART
10101110,
10101110,
1111,
2220,
10101110,
10101110,
1111,
3033, //56
10101110,
10101110,
1111,
2220,
10101110,
10101110,
10101110,
700000000000000000000000000000000008000000000000, //64
1111,
10101110,
1111,
1110,
1111,
10101110,
1111,
1110, //72
#GOGOEND
2,
2,
2,
0,
2,
2,
22,
22, //80
#GOGOSTART
10101110,
10101110,
1111,
2220,
10101110,
10101110,
1111,
3033, //88
10101110,
10101110,
1111,
2220,
10101110,
10101110,
10101110,
700000000000000000000000000000000008000000000000, //96
1110,
10101110,
1110,
500000000000000000000000000000000008000000000000,
1110,
10101110,
1110,
20202220, //104
7,
000000000000000000000008000000000000000000000000,
500000000000000000000000000000000000000000000008,
0,
10111010,
10111010,
2222,
2220, //112
#GOGOEND
3,
1,
1,
11,
3,
1,
1,
1011,
0,
0, //122
#END

COURSE:Easy
LEVEL:3
BALLOON:3,3,3,9
SCOREINIT:420,4410
SCOREDIFF:113
#START
1,
1,
1,
0,
1,
1,
1,
0, //8
#GOGOSTART
1110,
1110,
1110,
22,
1110,
1110,
1110,
70000800, //16
3011,
1011,
12,
1110,
1011,
1011,
12,
1110, //24
#GOGOEND
11,
1,
11,
2,
11,
1,
15,
000000000000000000000008000000000000000000000000, //32
11,
1,
11,
1,
11,
1,
11,
1, //40
2,
22,
2,
22,
2,
22,
500000000000000000000000000000000000000000000008,
0, //48
#GOGOSTART
1110,
1110,
1110,
22,
1110,
1110,
1110,
33, //56
1110,
1110,
1110,
22,
1110,
1110,
1110,
70000800, //64
1111,
1,
1111,
1,
1111,
1,
1111,
1, //72
#GOGOEND
2,
0,
2,
0,
2,
2,
2,
22, //80
#GOGOSTART
1110,
1110,
1110,
22,
1110,
1110,
1110,
33, //88
1110,
1110,
1110,
22,
1110,
1110,
1110,
70000800, //96
1110,
1,
1110,
500000000000000000000000000008000000000000000000,
1110,
1,
1110,
22, //104
7,
000000000000000000000008000000000000000000000000,
500000000000000000000000000000000000000000000008,
0,
1011,
1011,
12,
1110, //112
#GOGOEND
3,
1,
1,
1,
3,
1,
1,
11,
0,
0, //122
#END
