//TJADB Project
TITLE:The Gensokyo The Gods Loved
TITLEJA:神々が恋した幻想郷
SUBTITLE:--Touhou Project Arrange/Unlucky Morpheus
SUBTITLEJA:東方Projectアレンジ Unlucky Morpheus
BPM:155
WAVE:The Gensokyo The Gods Loved.ogg
OFFSET:-1.941
DEMOSTART:64.819

COURSE:Oni
LEVEL:9
BALLOON:
SCOREINIT:1230
SCOREDIFF:0
#START
2,
2,
22,
2000000000222020,
2000000000222020,
20000111,
40014001,
4010221122111120, //8
2111211121112111,
2111211121112040,
0011211121112111,
2111211122112220,
2111211121112111,
2111211222112211,
2012112012112012,
1120121040112222,
2112112112112222, //17
1020012010210120,
1020012010210120,
1020012010210120,
1020012010210122,
1020012010210120,
1020012010210120,
1020012010210122,
1020212010222111, //25
1004002010040020,
1111221122211122,
2001001040010010,
4001001040112221,
1004002010040020,
1111221122211122,
2001001040012211,
1120201120201120, //33
2111211121112111,
2111211121112040,
0011211121112111,
2111211122112220,
2111211121112111,
2111211222112211,
2012112012112012,
1121211120000000, //41
#GOGOSTART
1011201111112011,
1011201121112011,
1011201111112011,
1011201112012022,
1011201111112011,
1011201121112011,
1011201112012022,
1020212210112222, //49
1121112111211122,
1121112111211121,
2121112111211122,
1121112121212211,
1121112111211122,
1121112111211121,
2121112121211122,
2121121021222222,
1000000030030030, //58
2111211121112111,
2111211121112040,
0011211121112111,
2111211122112220,
2111211121112111,
2111211222112211,
2012112012112012,
1120121120112222,
2112212112212221, //67
#GOGOEND
1500,
0,
0,
000000000000000000000000000000000000000000000008,
0, //72
#END

COURSE:Hard
LEVEL:7
BALLOON:
SCOREINIT:2010
SCOREDIFF:0
#START
2,
2,
22,
20000222,
20000222,
20000111,
44,
4010111010111110, //8
2010201020111010,
2010201020111040,
0010201020111010,
2010201020111000,
2010201020111010,
2010201020111110,
2002002002002002,
0020020020222220,
1102201102201110, //17
1020002010220010,
1020002010220010,
1020002010220010,
1020002010220110,
1020002010220010,
1020002010220010,
1020002010220010,
1020002010222011, //25
1004002010040020,
1011101011101011,
1001001040010010,
4001001040111011,
1004002010040020,
1011101011101011,
1001001040010011,
1020201110202220, //33
5,
000000000000000000000000000000000000000008000000,
0010201020111010,
2010201020111000,
2010201020111010,
2010201020111110,
2002002002002002,
0020202220000000, //41
#GOGOSTART
1000201110102010,
1000201110102010,
1000201110102010,
1000201110102000,
1000201110102010,
1000201110102010,
1000201110102000,
1020202010222220, //49
1020111010201110,
1020111010201110,
1020111010201110,
1020111010201111,
1020111010201110,
1020111010201110,
1020111010201110,
1020111010111111,
1000000030030030, //58
6,
000000000000000000000000000000000000000008000000,
0010201020111010,
2010201020111000,
2010201020111010,
2010201020111110,
2002002002002002,
0020020020222220,
1102201102201111, //67
#GOGOEND
1500,
0,
0,
000000000000000000000000000000000000000000000008,
0, //72
#END

COURSE:Normal
LEVEL:6
BALLOON:7
SCOREINIT:3600
SCOREDIFF:0
#START
2,
2,
2,
20000220,
20000220,
20000110,
33,
7008, //8
20101110,
20101111,
00101110,
20101110,
20101110,
20101110,
40040040,
04004000,
1001001001001000, //17
11011101,
11011101,
5,
000008000000000000000000200000000000000000000000,
11011101,
11011101,
10111011,
11011220, //25
1001001010010010,
1000000010010010,
1222,
22,
1001001010010010,
1000000010010010,
1001001010010010,
1122, //33
5,
000000000000000000000000000000000000000008000000,
00101110,
20101110,
20101110,
20101110,
40040040,
04004000, //41
#GOGOSTART
10201110,
10112020,
10201110,
10111110,
10201110,
10112020,
10201110,
10111110, //49
11111010,
11111010,
11111010,
11111020,
11111010,
11111010,
11111111,
10000112,
2000000030030030, //58
6,
000000000000000000000000000000000000000008000000,
00101110,
20101110,
20101110,
20101110,
40040040,
04004000,
1001001001001000, //67
#GOGOEND
1500,
0,
0,
000000000000000000000000000000000000000000000008,
0, //72
#END

COURSE:Easy
LEVEL:4
BALLOON:5,7
SCOREINIT:7080
SCOREDIFF:0
#START
2,
2,
2,
2,
2,
2,
33,
7008, //8
11,
10101003,
01,
1110,
11,
1110,
30030030,
03003000,
500000000000000000000000000008000000000000000000, ///17
11,
1011,
11,
12,
11,
1011,
11,
22, //25
11,
11,
1110,
12,
11,
11,
11,
1111, //33
5,
000000000000000000000000000000000000000008000000,
01,
1110,
11,
1110,
30030030,
03003000, //41
#GOGOSTART
1011,
12,
1011,
12,
1011,
12,
1011,
1, //49
1111,
1110,
1111,
1110,
1110,
1110,
1111,
1,
10003003, //58
6,
000000000000000000000000000000000000000008000000,
01,
1110,
11,
1110,
30030030,
03003000,
7, //67
#GOGOEND
8500,
0,
0,
000000000000000000000000000000000000000000000008,
0, //72
#END
