//TJADB Project
TITLE:Kegarenaki Kusoyarou-domo
TITLEJA:汚れなきクソ野郎ども
SUBTITLE:--Kishidan
SUBTITLEJA:氣志團
BPM:146
WAVE:Kegarenaki Kusoyarou-domo.ogg
OFFSET:-3.514
DEMOSTART:71.857 //NOTE:
BPM temporarily fixed at 146. Actual BPM might be unstable.

COURSE:Oni
LEVEL:8
BALLOON:12
SCOREINIT:1920
SCOREDIFF:0
#START
3,
3000000000111111,
10000013,
01111110,
1011101010111010,
2011101011011111,
10000003, //7
0011201020112010,
2011202030303040,
0011201020112010,
2011202030303040,
0011201020112010,
2011202030304040,
0022101020101020,
0011200030304040,
00002200,
0000002011101040, //17
001020221010
#GOGOSTART
3000,
#GOGOEND
1010202210102020,
1010202210102000,
11210120,
1110202011102020,
#MEASURE 11/8
10002011201020
#GOGOSTART
303000
#GOGOEND
20,
#MEASURE 5/8
#GOGOSTART
330
#GOGOEND
22,
#MEASURE 4/4
#GOGOSTART
303030
#GOGOEND
04, //25
001020221010
#GOGOSTART
3000,
#GOGOEND
1010202210102020,
1010202210102020,
11210120,
1110202011102020,
#MEASURE 12/4
10002011201020
#GOGOSTART
303000
#GOGOEND
20
#GOGOSTART
303000
#GOGOEND
2020
#GOGOSTART
300030003000
#GOGOEND
0000, //31
#MEASURE 4/4
1010201011102000,
1010201011102000,
11210122,
500000000000000000000000000000000008000000000000,
1010201011102000,
1010201011102000,
6,
000000000000000000000000000000000008000000000000,
0022200000000000, //40
#GOGOSTART
1011201010112010,
1011201010112020,
1011201010112010,
1022112010404040,
3011201010112010,
1011201010112000,
30000004,
01114444,
#GOGOEND
1111101202201000, //49
#GOGOSTART
1011221010112210,
1011221010112020,
1011221010112210,
1022112010404040,
1011221010112210,
1011221010112020,
1011221010112210,
0010201040404040,
1111102011221050,
000000000000000000000008000000100000100000100000,
30000006, //60
0,
000000000000000000000008000000000000000000400000,
0011201020112010,
2011202030303040,
0011201020112010,
2011202030303040,
0022101020111010,
4000400022101020, //68
#GOGOEND
00002200,
00023337,
000000000000080000000000,
0,
0, //73
#END

COURSE:Hard
LEVEL:6
BALLOON:9
SCOREINIT:2710
SCOREDIFF:0
#START
3,
3000000000111010,
30000013,
01111110,
1011100010111000,
1011100011011000,
10000003, //7
01212021,
20212112,
01212021,
20212112,
01212021,
20212112,
02112111,
0022200030304040,
0,
00001114, //17
012210
#GOGOSTART
30,
#GOGOEND
11201122,
11201120,
11210120,
11201122,
#MEASURE 11/8
1022112
#GOGOSTART
330
#GOGOEND
0,
#MEASURE 5/8
#GOGOSTART
330
#GOGOEND
00,
#MEASURE 4/4
#GOGOSTART
303030
#GOGOEND
04, //25
012210
#GOGOSTART
30,
#GOGOEND
11201122,
11201120,
11210120,
11201120,
#MEASURE 12/4
1022112
#GOGOSTART
330
#GOGOEND
0
#GOGOSTART
330
#GOGOEND
00
#GOGOSTART
303030
#GOGOEND
00, //31
#MEASURE 4/4
10211120,
10211120,
10210122,
500000000000000000000000000000000008000000000000,
10211120,
10211120,
6,
000000000000000000000000000000000008000000000000,
02200000, //40
#GOGOSTART
10221122,
1011101020102000,
10221122,
1022202010101000,
10221122,
1011101020102000,
30000004,
01113333,
#GOGOEND
4, //49
#GOGOSTART
10221122,
1011101020102000,
10221122,
1022202010101000,
10221122,
1011101020102000,
11201125,
000000000000000000000000000000000008000000000000,
12101215,
000000000000000000000000000000000008000000000000,
30000006, //60
0,
000000000000000000000008000000000000000000400000,
01212021,
20212112,
01212021,
20212112,
02112111,
40402112, //68
#GOGOEND
0,
00001117,
000000000000080000000000,
0,
0, //73
#END

COURSE:Normal
LEVEL:5
BALLOON:11,6
SCOREINIT:3550
SCOREDIFF:0
#START
3,
30000111,
30000013,
0111,
11101110,
11101010,
10000003, //7
01111011,
10111012,
01111011,
10111012,
01111011,
10111012,
01111011,
01201111,
0,
00000004, //17
000
#GOGOSTART
3,
#GOGOEND
10201120,
10201120,
10210120,
10201120,
#MEASURE 11/8
1020112
#GOGOSTART
030
#GOGOEND
0,
#MEASURE 5/8
#GOGOSTART
030
#GOGOEND
00,
#MEASURE 4/4
#GOGOSTART
303030
#GOGOEND
04, //25
000
#GOGOSTART
3,
#GOGOEND
10201120,
10201120,
10210120,
10201120,
#MEASURE 12/4
1020112
#GOGOSTART
030
#GOGOEND
0
#GOGOSTART
030
#GOGOEND
00
#GOGOSTART
303030
#GOGOEND
00, //31
#MEASURE 4/4
10111020,
10111020,
10110110,
500000000000000000000000000000000008000000000000,
10111020,
10111020,
6,
000000000000000000000000000000000008000000000000,
0, //40
#GOGOSTART
10221022,
10101120,
10221022,
10101111,
10221022,
10101120,
30000009,
000000000000000009000000,
#GOGOEND
8, //49
#GOGOSTART
10221022,
10101120,
10221022,
10101111,
10221022,
10101120,
10102215,
000000000000000000000000000000000008000000000000,
20201125,
000000000000000000000000000000000008000000000000,
30000006, //60
0,
000000000000000000000008000000000000000000400000,
01111011,
10111012,
01111011,
10111012,
01111010,
40401111, //68
#GOGOEND
0,
00001017,
000000000000080000000000,
0,
0, //73
#END

COURSE:Easy
LEVEL:3
BALLOON:9,4
SCOREINIT:9720
SCOREDIFF:0
#START
3,
3,
30000003,
0,
11,
1100,
10000003, //7
01,
10001002,
01,
10001002,
01,
10001002,
01,
10001001,
0,
00000004, //17
000
#GOGOSTART
3,
#GOGOEND
01,
1,
1,
11,
#MEASURE 11/8
100000000000000000000000000000000000000000
#GOGOSTART
000000600008000000
#GOGOEND
000000,
#MEASURE 5/8
#GOGOSTART
000000600008000000
#GOGOEND
000000000000,
#MEASURE 4/4
#GOGOSTART
600000000000000000000008000000000000
#GOGOEND
000000400000, //25
000
#GOGOSTART
3,
#GOGOEND
0,
11,
1,
11,
#MEASURE 12/4
100000000000000000000000000000000000000000
#GOGOSTART
000000600008000000
#GOGOEND
000000
#GOGOSTART
000000600008000000
#GOGOEND
000000000000
#GOGOSTART
600000000000000000000008000000000000
#GOGOEND
000000000000, //31
#MEASURE 4/4
11,
22,
11,
500000000000000000000000000008000000000000000000,
11,
22,
6,
000000000000000000000000000000000008000000000000,
0, //40
#GOGOSTART
12,
12,
1110,
1110,
12,
12,
30000009,
000000000000000009000000,
#GOGOEND
8, //49
#GOGOSTART
12,
12,
1110,
1110,
12,
12,
10101005,
000000000000000000000000000008000000000000000000,
20202005,
000000000000000000000000000008000000000000000000,
30000006, //60
0,
000000000000000000000008000000000000000000400000,
01,
10001002,
01,
10001002,
01,
40400001, //68
#GOGOEND
0,
00001007,
000000000000080000000000,
0,
0, //73
#END
