//TJADB Project
TITLE:IRIS OUT
TITLEJA:IRIS OUT
SUBTITLE:--Kenshi Yonezu / "Chainsaw Man The Movie: Reze Arc" Theme Song
SUBTITLEJA:米津玄師 / 劇場版『チェンソーマン レゼ篇』主題歌
BPM:135
WAVE:IRIS OUT.ogg
OFFSET:-3.934
DEMOSTART:46.125 //shinuchi:
8970/6200/3650/2530

COURSE:Oni
LEVEL:8
BALLOON:4,19,3
SCOREINIT:880,2680
SCOREDIFF:243
#START
100200101001002102100202,
100200201001002102100202,
100200201002002102102102,
100200201001102222000000,
100200101001002102100202,
100200201001002102100202,
100200201002002102102102,
100200201001700000800000, //8
100100100201100100100200,
100102100201100100100200,
100102100201100100100200,
100102100201100100400000,
100100100201100100100202,
100102100201100100100202,
100102100201100100100200,
3000300030001122, //16
1020112210202222,
1122112210201121,
1020112110202222,
1122112210202222,
200000400000200200200000200000200020200020200020,
202202102200200000200200,
100000200020100000200020100000100000100100100000,
4, //24
#GOGOSTART
100000200000100000200000100100100100100200100020,
100000200000100000200000100100100100100200100020,
100200100200100100202200,
700
#GOGOEND
8,
#GOGOSTART
100000200000100000200000100000200200100200100020,
2020102020201112,
100200100200102200102200,
#GOGOEND
3430, //32
1010202010102220,
1010202010102220,
1010202010102220,
31223178,
100202100202101102100202,
100202100202102100222200,
6,
000000000000000008000000000000000000400000000000,
#BARLINEOFF
0, //41
#END

COURSE:Hard
LEVEL:5
BALLOON:3,13,2
SCOREINIT:890,3880
SCOREDIFF:270
#START
11101212,
1010200010222020,
1010200010202220,
100000100000200200200000500000000008000000000000,
11101212,
1010200010222020,
1010200010202220,
1010222070008000, //8
1020102010200011,
11221210,
11221212,
11111020,
1020102010200011,
11221210,
11221212,
3000300030002220, //16
1000222010002220,
1010101010002220,
1000222010002220,
1010101010002220,
2000222020222220,
22222022,
10101111,
4, //24
#GOGOSTART
1020102010110110,
1020102010110110,
12121122,
700
#GOGOEND
8,
#GOGOSTART
1020102010110110,
2020202020001110,
12121212,
#GOGOEND
3430, //32
10201022,
10201022,
10201022,
30203078,
1000100010101110,
1000100020202220,
6,
000000000000000008000000000000000000400000000000,
#BARLINEOFF
0, //41
#END

COURSE:Normal
LEVEL:5
BALLOON:9
SCOREINIT:1210,6700
SCOREDIFF:488
#START
11101010,
11201020,
11201020,
11201100,
11101010,
11201020,
11201020,
11201000, //8
1110,
1122,
1122,
10111000,
1110,
1122,
1122,
3330, //16
11,
11111000,
11,
11111000,
22,
22222000,
1111,
4, //24
#GOGOSTART
1000100010010010,
1000100010010010,
10101122,
700
#GOGOEND
8,
#GOGOSTART
1000100010010010,
2220,
12101210,
#GOGOEND
3430, //32
1012,
1012,
1012,
33,
10101110,
10102220,
6,
000000000000000008000000000000000000400000000000,
#BARLINEOFF
0, //41
#END

COURSE:Easy
LEVEL:2
BALLOON:7
SCOREINIT:940,9980
SCOREDIFF:585
#START
1110,
1120,
1120,
1110,
1110,
1120,
1120,
1100, //8
11,
12,
11,
1110,
11,
12,
11,
3330, //16
11,
1110,
11,
1110,
22,
2220,
1111,
4, //24
#GOGOSTART
1110,
1110,
1111,
700
#GOGOEND
8,
#GOGOSTART
1110,
2220,
1111,
#GOGOEND
3430, //32
11,
11,
11,
33,
1110,
1122,
6,
000000000000000008000000000000000000400000000000,
#BARLINEOFF
0, //41
#END
