//TJADB Project
TITLE:UMA no Force Train2000ing [150 BPM ver.]
TITLEJA:UMAのフォーストレーニ千グ 【BPM150編】
SUBTITLE:--LindaAI-CUE × Masubuchi prod. Licht Tsuboi × Kawagen Kollagen (BNSI)
SUBTITLEJA:LindaAI-CUE × マスブチ prod. 坪井リヒト × Kawagen Kollagen (BNSI)
BPM:150
WAVE:UMA no Force Train2000ing (150BPM).ogg
OFFSET:-1.769
DEMOSTART:3.369

COURSE:Edit
LEVEL:10
BALLOON:26
SCOREINIT:2810
SCOREDIFF:0
#START
0,
11102000100020001110200010002000,
11102000100020001110200010002000,
11102000100020001110200020202000,
11102000100020001110200020202000,
11111000200020001111100020002000,
11111000200020001111100020002000,
11111000202020001111100020202000,
11111000202020001111100020202000, //9
11112000100020001111200010002000,
11112000100020001111200010002000,
11112000101020001111200010102000,
11112000101020001111200010102000,
11112000100020001111200020202000,
11112000100020001111200020202000,
11112000111120001111200011112000,
11112000111120001111200011112000, //17
#MEASURE 8/4
#BPMCHANGE 300
#SCROLL 0.5
#GOGOSTART
11111111111120001111111111112000,
11111111111120001111111111112000,
11111111111111111111111111111111,
11111111111111111111111111111111, //21
#GOGOEND
#MEASURE 1/32
#BPMCHANGE 9.375
#SCROLL 16
7800, //22
#BPMCHANGE 150
#SCROLL 7.65
0,
#SCROLL 7.41
0,
#SCROLL 7.17
0,
#SCROLL 6.94
0,
#SCROLL 6.72
0,
#SCROLL 6.51
0,
#SCROLL 6.3
0,
#SCROLL 6.1
0,
#SCROLL 5.91
0,
#SCROLL 5.72
0,
#SCROLL 5.54
0,
#SCROLL 5.36
0,
#SCROLL 5.19
0,
#SCROLL 5.03
0,
#SCROLL 4.87
0,
#SCROLL 4.71
0, //38
#SCROLL 4.56
0,
#SCROLL 4.42
0,
#SCROLL 4.28
0,
#SCROLL 4.14
0,
#SCROLL 4.01
0,
#SCROLL 3.88
0,
#SCROLL 3.76
0,
#SCROLL 3.64
0,
#SCROLL 3.52
0,
#SCROLL 3.41
0,
#SCROLL 3.3
0,
#SCROLL 3.2
0,
#SCROLL 3.1
0,
#SCROLL 3
0,
#SCROLL 2.9
0,
#SCROLL 2.81
0, //54
#SCROLL 2.72
0,
#SCROLL 2.64
0,
#SCROLL 2.55
0,
#SCROLL 2.47
0,
#SCROLL 2.39
0,
#SCROLL 2.32
0,
#SCROLL 2.24
0,
#SCROLL 2.17
0,
#SCROLL 2.1
0,
#SCROLL 2.04
0,
#SCROLL 1.97
0,
#SCROLL 1.91
0,
#SCROLL 1.85
0,
#SCROLL 1.79
0,
#SCROLL 1.73
0,
#SCROLL 1.68
0, //70
#SCROLL 1.62
0,
#SCROLL 1.57
0,
#SCROLL 1.52
0,
#SCROLL 1.47
0,
#SCROLL 1.43
0,
#SCROLL 1.38
0,
#SCROLL 1.34
0,
#SCROLL 1.29
0,
#SCROLL 1.25
0,
#SCROLL 1.21
0,
#SCROLL 1.18
0,
#SCROLL 1.14
0,
#SCROLL 1.1
0,
#SCROLL 1.07
0,
#SCROLL 1.03
0,
#SCROLL 1
0, //86
#END

COURSE:Oni
LEVEL:7
BALLOON:26
SCOREINIT:4810
SCOREDIFF:0
#START
0,
1110101011101010,
1110101011101010,
2220202022202020,
2220202022202020,
1110102011101020,
1110102011101020,
2220201022202010,
2220201022202010, //9
1120102011201020,
1120102011201020,
1220102012201020,
1220102012201020,
2210201022102010,
2210201022102010,
2110201021102010,
2110201021102010, //17
#MEASURE 8/4
#BPMCHANGE 300
#SCROLL 0.5
#GOGOSTART
1122100011221000,
1122100011221000,
1122112011221120,
1122112011221120, //21
#GOGOEND
#MEASURE 1/32
#BPMCHANGE 9.375
#SCROLL 16
7800, //22
#BPMCHANGE 150
#SCROLL 7.65
0,
#SCROLL 7.41
0,
#SCROLL 7.17
0,
#SCROLL 6.94
0,
#SCROLL 6.72
0,
#SCROLL 6.51
0,
#SCROLL 6.3
0,
#SCROLL 6.1
0,
#SCROLL 5.91
0,
#SCROLL 5.72
0,
#SCROLL 5.54
0,
#SCROLL 5.36
0,
#SCROLL 5.19
0,
#SCROLL 5.03
0,
#SCROLL 4.87
0,
#SCROLL 4.71
0, //38
#SCROLL 4.56
0,
#SCROLL 4.42
0,
#SCROLL 4.28
0,
#SCROLL 4.14
0,
#SCROLL 4.01
0,
#SCROLL 3.88
0,
#SCROLL 3.76
0,
#SCROLL 3.64
0,
#SCROLL 3.52
0,
#SCROLL 3.41
0,
#SCROLL 3.3
0,
#SCROLL 3.2
0,
#SCROLL 3.1
0,
#SCROLL 3
0,
#SCROLL 2.9
0,
#SCROLL 2.81
0, //54
#SCROLL 2.72
0,
#SCROLL 2.64
0,
#SCROLL 2.55
0,
#SCROLL 2.47
0,
#SCROLL 2.39
0,
#SCROLL 2.32
0,
#SCROLL 2.24
0,
#SCROLL 2.17
0,
#SCROLL 2.1
0,
#SCROLL 2.04
0,
#SCROLL 1.97
0,
#SCROLL 1.91
0,
#SCROLL 1.85
0,
#SCROLL 1.79
0,
#SCROLL 1.73
0,
#SCROLL 1.68
0, //70
#SCROLL 1.62
0,
#SCROLL 1.57
0,
#SCROLL 1.52
0,
#SCROLL 1.47
0,
#SCROLL 1.43
0,
#SCROLL 1.38
0,
#SCROLL 1.34
0,
#SCROLL 1.29
0,
#SCROLL 1.25
0,
#SCROLL 1.21
0,
#SCROLL 1.18
0,
#SCROLL 1.14
0,
#SCROLL 1.1
0,
#SCROLL 1.07
0,
#SCROLL 1.03
0,
#SCROLL 1
0, //86
#END

COURSE:Hard
LEVEL:6
BALLOON:26
SCOREINIT:6410
SCOREDIFF:0
#START
0,
11101110,
11101110,
22202220,
22202220,
11111110,
11111110,
22222220,
22222220, //9
1110100011101000,
1110100011101000,
2220200022202000,
2220200022202000,
1110200011102000,
1110200011102000,
2220100022201000,
2220100022201000, //17
#MEASURE 8/4
#BPMCHANGE 300
#SCROLL 0.5
#GOGOSTART
1110111011101000,
1110111011101000,
1110111011101000,
1110111011101000, //21
#GOGOEND
#MEASURE 1/32
#BPMCHANGE 9.375
#SCROLL 16
7800, //22
#BPMCHANGE 150
#SCROLL 7.65
0,
#SCROLL 7.41
0,
#SCROLL 7.17
0,
#SCROLL 6.94
0,
#SCROLL 6.72
0,
#SCROLL 6.51
0,
#SCROLL 6.3
0,
#SCROLL 6.1
0,
#SCROLL 5.91
0,
#SCROLL 5.72
0,
#SCROLL 5.54
0,
#SCROLL 5.36
0,
#SCROLL 5.19
0,
#SCROLL 5.03
0,
#SCROLL 4.87
0,
#SCROLL 4.71
0, //38
#SCROLL 4.56
0,
#SCROLL 4.42
0,
#SCROLL 4.28
0,
#SCROLL 4.14
0,
#SCROLL 4.01
0,
#SCROLL 3.88
0,
#SCROLL 3.76
0,
#SCROLL 3.64
0,
#SCROLL 3.52
0,
#SCROLL 3.41
0,
#SCROLL 3.3
0,
#SCROLL 3.2
0,
#SCROLL 3.1
0,
#SCROLL 3
0,
#SCROLL 2.9
0,
#SCROLL 2.81
0, //54
#SCROLL 2.72
0,
#SCROLL 2.64
0,
#SCROLL 2.55
0,
#SCROLL 2.47
0,
#SCROLL 2.39
0,
#SCROLL 2.32
0,
#SCROLL 2.24
0,
#SCROLL 2.17
0,
#SCROLL 2.1
0,
#SCROLL 2.04
0,
#SCROLL 1.97
0,
#SCROLL 1.91
0,
#SCROLL 1.85
0,
#SCROLL 1.79
0,
#SCROLL 1.73
0,
#SCROLL 1.68
0, //70
#SCROLL 1.62
0,
#SCROLL 1.57
0,
#SCROLL 1.52
0,
#SCROLL 1.47
0,
#SCROLL 1.43
0,
#SCROLL 1.38
0,
#SCROLL 1.34
0,
#SCROLL 1.29
0,
#SCROLL 1.25
0,
#SCROLL 1.21
0,
#SCROLL 1.18
0,
#SCROLL 1.14
0,
#SCROLL 1.1
0,
#SCROLL 1.07
0,
#SCROLL 1.03
0,
#SCROLL 1
0, //86
#END

COURSE:Normal
LEVEL:4
BALLOON:26
SCOREINIT:10420
SCOREDIFF:0
#START
0,
1111,
1111,
2222,
2222,
1212,
1212,
2121,
2121, //9
10101110,
10101110,
20202220,
20202220,
10201120,
10201120,
20102210,
20102210, //17
#MEASURE 8/4
#BPMCHANGE 300
#SCROLL 0.5
#GOGOSTART
11101110,
22202220,
11201120,
22102210, //21
#GOGOEND
#MEASURE 1/32
#BPMCHANGE 9.375
#SCROLL 16
7800, //22
#BPMCHANGE 150
#SCROLL 7.65
0,
#SCROLL 7.41
0,
#SCROLL 7.17
0,
#SCROLL 6.94
0,
#SCROLL 6.72
0,
#SCROLL 6.51
0,
#SCROLL 6.3
0,
#SCROLL 6.1
0,
#SCROLL 5.91
0,
#SCROLL 5.72
0,
#SCROLL 5.54
0,
#SCROLL 5.36
0,
#SCROLL 5.19
0,
#SCROLL 5.03
0,
#SCROLL 4.87
0,
#SCROLL 4.71
0, //38
#SCROLL 4.56
0,
#SCROLL 4.42
0,
#SCROLL 4.28
0,
#SCROLL 4.14
0,
#SCROLL 4.01
0,
#SCROLL 3.88
0,
#SCROLL 3.76
0,
#SCROLL 3.64
0,
#SCROLL 3.52
0,
#SCROLL 3.41
0,
#SCROLL 3.3
0,
#SCROLL 3.2
0,
#SCROLL 3.1
0,
#SCROLL 3
0,
#SCROLL 2.9
0,
#SCROLL 2.81
0, //54
#SCROLL 2.72
0,
#SCROLL 2.64
0,
#SCROLL 2.55
0,
#SCROLL 2.47
0,
#SCROLL 2.39
0,
#SCROLL 2.32
0,
#SCROLL 2.24
0,
#SCROLL 2.17
0,
#SCROLL 2.1
0,
#SCROLL 2.04
0,
#SCROLL 1.97
0,
#SCROLL 1.91
0,
#SCROLL 1.85
0,
#SCROLL 1.79
0,
#SCROLL 1.73
0,
#SCROLL 1.68
0, //70
#SCROLL 1.62
0,
#SCROLL 1.57
0,
#SCROLL 1.52
0,
#SCROLL 1.47
0,
#SCROLL 1.43
0,
#SCROLL 1.38
0,
#SCROLL 1.34
0,
#SCROLL 1.29
0,
#SCROLL 1.25
0,
#SCROLL 1.21
0,
#SCROLL 1.18
0,
#SCROLL 1.14
0,
#SCROLL 1.1
0,
#SCROLL 1.07
0,
#SCROLL 1.03
0,
#SCROLL 1
0, //86
#END

COURSE:Easy
LEVEL:3
BALLOON:26
SCOREINIT:17860
SCOREDIFF:0
#START
0,
11,
11,
22,
22,
12,
12,
21,
21, //9
1110,
1110,
2220,
2220,
1210,
1210,
2120,
2120, //17
#MEASURE 8/4
#BPMCHANGE 300
#SCROLL 0.5
#GOGOSTART
1111,
2222,
1212,
2121, //21
#GOGOEND
#MEASURE 1/32
#BPMCHANGE 9.375
#SCROLL 16
7800, //22
#BPMCHANGE 150
#SCROLL 7.65
0,
#SCROLL 7.41
0,
#SCROLL 7.17
0,
#SCROLL 6.94
0,
#SCROLL 6.72
0,
#SCROLL 6.51
0,
#SCROLL 6.3
0,
#SCROLL 6.1
0,
#SCROLL 5.91
0,
#SCROLL 5.72
0,
#SCROLL 5.54
0,
#SCROLL 5.36
0,
#SCROLL 5.19
0,
#SCROLL 5.03
0,
#SCROLL 4.87
0,
#SCROLL 4.71
0, //38
#SCROLL 4.56
0,
#SCROLL 4.42
0,
#SCROLL 4.28
0,
#SCROLL 4.14
0,
#SCROLL 4.01
0,
#SCROLL 3.88
0,
#SCROLL 3.76
0,
#SCROLL 3.64
0,
#SCROLL 3.52
0,
#SCROLL 3.41
0,
#SCROLL 3.3
0,
#SCROLL 3.2
0,
#SCROLL 3.1
0,
#SCROLL 3
0,
#SCROLL 2.9
0,
#SCROLL 2.81
0, //54
#SCROLL 2.72
0,
#SCROLL 2.64
0,
#SCROLL 2.55
0,
#SCROLL 2.47
0,
#SCROLL 2.39
0,
#SCROLL 2.32
0,
#SCROLL 2.24
0,
#SCROLL 2.17
0,
#SCROLL 2.1
0,
#SCROLL 2.04
0,
#SCROLL 1.97
0,
#SCROLL 1.91
0,
#SCROLL 1.85
0,
#SCROLL 1.79
0,
#SCROLL 1.73
0,
#SCROLL 1.68
0, //70
#SCROLL 1.62
0,
#SCROLL 1.57
0,
#SCROLL 1.52
0,
#SCROLL 1.47
0,
#SCROLL 1.43
0,
#SCROLL 1.38
0,
#SCROLL 1.34
0,
#SCROLL 1.29
0,
#SCROLL 1.25
0,
#SCROLL 1.21
0,
#SCROLL 1.18
0,
#SCROLL 1.14
0,
#SCROLL 1.1
0,
#SCROLL 1.07
0,
#SCROLL 1.03
0,
#SCROLL 1
0, //86
#END
