TITLE:マルトーアンフェール
SUBTITLE:塚越雄一朗(NanosizeMir) & 祇羽 feat. 愛原圭織
BPM:326
WAVE:Marteau en fer.ogg
OFFSET:-1.215
DEMOSTART:53.072

COURSE:Edit
LEVEL:10
BALLOON:13,3,3,3,3
SCOREINIT:290,770
SCOREDIFF:63
#START
101010101110,
#MEASURE 8/4
211200211200,
101110200010102110200000,
100011102020102020102022,
101110102020102020102020,
300011102020102020300000,
101022101012,
#MEASURE 4/4
04,
#MEASURE 8/4
7008, //9
3040002211221212,
1100002211221212,
2000002211221212,
3434,
10002022101020201010202010201020,
100000100000200000200000100000100000200000200000100000100000200000100100100010001000100000100000,
200200200200100100100100200200200200100100101010,
211222111200,
#MEASURE 4/4
3000000040001110,
#MEASURE 8/4
1122112211221212,
10102020101020201000202210102020,
#MEASURE 12/4
112212121122112212121122, //21
#MEASURE 8/4
30000000400011101010202010102020,
1122121211221122,
10002022102010201010202010102020,
1122121230000000,
#SCROLL 0.5
1212102210210210,
1212102210210210,
1212112212121122,
100000200000100000200000100000200200200002000000300000000000000000000000200000002000000020000000, //29
700000000000000000080000100000002000000020000000100000001000000010000000200000000000000000000000,
121222111200,
700000000000000000080000100000002000000020000000100000001000000010000000200000001000000020000000,
111222111211,
200011202020101010201020,
101111202020101010201010,
1111222211112222,
100000100111200000000000, //37
#SCROLL 1
#GOGOSTART
10002011101020001010201110202000,
10102011101020001110222011102220,
10002011101020001010201110202000,
10102011101020002220111022201110,
20002011101020201010202010101010,
300000004000000030000000400000000000101010100100,
20002011101020201000202010102020,
500000000000000000000000000000000000000000000000000000000000000000000000000000000008000000000000,
4003004011111111, //46
2022122010212210,
1022122010212210,
1022122210212212,
1022122210210210,
3022112210211212,
1022112210211212,
30002020202220201011101020222020,
101022101020,
00000011200020201010101020202020,
1122112211112222,
1122112211112222,
#GOGOEND
101022000000, //58
3000002211221212,
100000100000000000000000000000000000200000200000100000100100200000100100100010001000100000100100,
200200200200100100100100200200200200200010001000,
112121112120,
1000400011121112,
10002020100020221010102010101020,
100000000000200000200200100000100000200000200000100000001000000010000000200000002000000020000000,
2001221122111121, //66
#GOGOSTART
20002020101020001010202011102000,
10102020111020101000202011102010,
21102020111020111110201020000000,
101020201210200000100000,
#GOGOEND
#SCROLL 0.5
700000000000000000080000200000002000000020000000100000001000000010000000200000001000000020000000,
111222111212,
700000000000000000080000200000002000000020000000100000001000000010000000200000001000000020000000,
112210202020300000300000,
400011202020101010202020,
111222121211,
200000000000000000000000100000100100100000100000100010001000100000100000100010001000100000100000,
2, //78
#SCROLL 1
#GOGOSTART
10002011101020001010201110202000,
10102011101020001110222011102220,
10002011101020001010201110202000,
10102011101020002220111022201110,
20002011101020201010202010102020,
1122112211221111,
20002020111010102220202011101010,
202022101020, //86
00000011200020201010101020202020,
1122112211112222,
10102022101020221010101120202022,
1000400011221122,
101011200000201010201010,
201010201010201010201111,
2211200050000000,
000000000000000008000000000000000000000000000000
#GOGOEND
000000000000000000000000000000000000000000000000, //94
#GOGOSTART
300010201010201020201011,
201110201010201010400010,
400011201010201010201010,
111011102020111011101022,
111011102020111011104000,
0
#GOGOEND
0,
0, //101
#END

COURSE:Oni
LEVEL:9
BALLOON:12,3,3,3,3,15
SCOREINIT:410,1200
SCOREDIFF:98
#START
#SCROLL 0.5
0,
#MEASURE 8/4
101200201200,
111200121200,
101122102000,
101122102000,
101122102000,
101011101011,
#MEASURE 4/4
04,
#BARLINEOFF
#MEASURE 8/4
7008, //9
#BARLINEON
3000001011111110,
1000001011111110,
2000001011222210,
1212,
1020111011111110,
1020111011222210,
2000200020002011,
201101111200,
#MEASURE 4/4
34,
#MEASURE 8/4
1020112010201210,
1020112010201120,
#MEASURE 12/4
102012101120222011202220, //21
#MEASURE 8/4
3000400010201120,
1020121010201120,
1020121010201120,
1020101120000000,
1212102010220220,
1212102010220220,
1212102012121020,
1212112030000000, //29
700000000000000000080000100000000000000000000000100000001000000010000000200000000000000000000000,
222100111200,
700000000000000000080000100000000000000000000000100000001000000010000000200000000000000000000000,
222100111200,
200111111200,
100211111200,
1110222011102220,
1000101120000000, //37
#GOGOSTART
1020112010201220,
1020112011101110,
1020112010201220,
1020112022202220,
1020112010201111,
100000002000000010000000200000000000100100100000,
1020112010111110,
500000000000000000000000000000000000000000000000000000000000000000000000000000000008000000000000,
4003004000000000, //46
2022102010212020,
1022102010220220,
1022102010212010,
2010112000050000,
000000000000000000000000000000000000000000000000000000000000000000000000000000000008000000000000,
1022102010212010,
2020222011102220,
101022101020,
0000202011102220,
1120112011102220,
1120112011102220,
#GOGOEND
101022000000, //58
3000001011111110,
1000001011222210,
2220200011101000,
112120112120,
1000400010111110,
1020102010111110,
100200100200101010101010,
500000000000000000000000000000000000000000000000000000000000000000000008000000000000200000200000, //66
#GOGOSTART
2022102010221020,
1022102010221022,
2022102210221000,
111111200100,
#GOGOEND
700000000000000000080000200000002000000020000000100000000000000000000000200000001000000020000000,
100222100200,
700000000000000000080000200000002000000020000000100000000000000000000000200000001000000020000000,
500000000000000000000000000000000008000000000000300000000000000000000000300000000000000000000000,
400222100222,
100222102010,
700000000000000000000000000000000000000000000000000000000000000000000000000000000008000000000000,
4, //78
#GOGOSTART
1020112010201220,
1020112011101110,
1020112010201220,
1020112022202220,
1020112010201220,
1020112010201220,
2020111022201110,
202022101020, //86
0000201011102220,
1120112011102220,
1120112011102220,
1400,
111200111200,
200111111200,
1111200050000000,
000000000000000008000000000000000000000000000000
#GOGOEND
000000000000000000000000000000000000000000000000, //94
#GOGOSTART
301111101101,
101111101201,
201111101210,
101022101012,
202022101040,
0
#GOGOEND
0,
0, //101
#END

COURSE:Hard
LEVEL:7
BALLOON:10,2,2,5,18,11
SCOREINIT:460,1680
SCOREDIFF:105
#START
#SCROLL 0.5
0,
#MEASURE 8/4
101100202200,
111100222200,
101110101000,
101110202000,
101110101000,
500000000000000000000000000000000000000000000000000000000000000000000000000000000000000000000008,
#MEASURE 4/4
04,
#BARLINEOFF
#MEASURE 8/4
7008, //9
#BARLINEON
3000001010111010,
1000001010111010,
2000001010222020,
1212,
1000001010111010,
1000001010111010,
20202021,
201100101100,
#MEASURE 4/4
34,
#MEASURE 8/4
12011201,
12011201,
#MEASURE 12/4
120111221122, //21
#MEASURE 8/4
30401201,
12011201,
12011201,
1020101110000000,
2220200010010010,
2220200010010010,
2220200022202000,
2220100030000000, //29
700000000000000000080000000000000000000000000000100000001000000010000000100000000000000000000000,
222200111100,
700000000000000000080000000000000000000000000000100000001000000010000000100000000000000000000000,
222200111100,
200101100201,
100201100200,
1110100022202000,
34, //37
#GOGOSTART
12021202,
100000000000200000000000100000000000100000000000500000000000000000000000000000000008000000000000,
12021202,
100000000000200000000000100000000000100000000000700000000000000000000000000000000000080000000000,
1020002010001011,
111100,
1020100010101110,
500000000000000000000000000000000000000000000000000000000000000000000000000000000008000000000000,
4004004000000000, //46
22121222,
12121222,
1000100010010010,
2010102000090000,
009,
8,
2010101010101110,
101011101020,
00221122,
12121122,
1020102010010010,
#GOGOEND
500000000000000000000000000000000000000008000000000000000000000000000000000000000000000000000000, //58
3000001010111010,
1000001010111010,
2211,
101110101110,
1000400010111010,
1020102010111010,
100200100200100100101010,
500000000000000000000000000000000000000000000000000000000000000000000008000000000000200000000000, //66
#GOGOSTART
22121212,
12121212,
22121210,
500000000000000000000000000000000000000000000008000000000000000000000000100000000000000000000000,
#GOGOEND
300202200202,
100202200200,
300202200202,
500000000000000000000000000000000008000000000000300000000000000000000000300000000000000000000000,
400222200222,
200222202020,
700000000000000000000000000000000000000000000000000000000000000000000000000000000008000000000000,
4, //78
#GOGOSTART
12021202,
100000000000200000000000100000000000100000000000500000000000000000000000000000000008000000000000,
12021202,
1020101011101020,
12021202,
12021211,
2010101010101110,
101011101010, //86
00221122,
12121122,
1020102010010010,
1400,
111100111100,
200000000000000000000000500000000000000000000000000000000008000000000000200000000000000000000000,
1110200050000000,
000000000000000008000000000000000000000000000000
#GOGOEND
000000000000000000000000000000000000000000000000, //94
#GOGOSTART
301100101100,
101100101101,
101100101010,
101011101010,
202022202040,
0
#GOGOEND
0,
0, //101
#END

COURSE:Normal
LEVEL:6
BALLOON:6,2,2,3,12,7,10
SCOREINIT:510,2480
SCOREDIFF:125
#START
#SCROLL 0.5
0,
#MEASURE 8/4
1122,
3344,
110110,
110220,
110110,
500000000000000000000000000000000000000000000000000000000000000000000000000000000000000000000008,
#MEASURE 4/4
04,
#BARLINEOFF
#MEASURE 8/4
7008, //9
#BARLINEON
30011110,
10011110,
20011110,
1212,
10011110,
10011110,
22,
2111,
#MEASURE 4/4
3,
#MEASURE 8/4
11011101,
11011101,
#MEASURE 12/4
110111101110, //21
#MEASURE 8/4
30001101,
11011101,
11011101,
13,
22201000,
22201000,
22202220,
22103000, //29
700000000000000000080000000000000000000000000000100000000000000000000000100000000000000000000000,
2210,
700000000000000000080000000000000000000000000000100000000000000000000000100000000000000000000000,
2210,
2112,
1212,
1122,
34, //37
#GOGOSTART
12011201,
100000000000200000000000000000000000100000000000500000000000000000000000000000000008000000000000,
12011201,
100000000000200000000000000000000000100000000000700000000000000000000000000000000000080000000000,
12011020,
13,
1110,
500000000000000000000000000000000000000000000000000000000000000000000000000000000008000000000000,
4004004000000000, //46
22021202,
12021202,
1120,
1000102000090000,
009,
8,
11101110,
500000000000000000000000000000000000000000000000000000000000000000000000000008000000000000000000,
00401120,
12101120,
12101120,
#GOGOEND
500000000000000000000000000000000000000008000000000000000000000000000000000000000000000000000000, //58
30011110,
10011110,
2211,
500000000000000000000000000000000000000000000000000000000000000000000000000008000000000000000000,
1400,
12101110,
12101110,
500000000000000000000000000000000000000000000000000000000000000000000008000000000000000000000000, //66
#GOGOSTART
22101210,
12101210,
22101210,
500000000000000000000000000000000000000000000008000000000000000000000000100000000000000000000000,
#GOGOEND
32,
12,
32,
500000000000000000000000000000000008000000000000300000000000000000000000300000000000000000000000,
4121,
200100202020,
700000000000000000000000000000000000000000000000000000000000000000000000000000000008000000000000,
4, //78
#GOGOSTART
12011201,
100000000000200000000000000000000000100000000000500000000000000000000000000000000008000000000000,
12011201,
12010700,
00000008,
12011010,
20101110,
500000000000000000000000000000000000000000000000000000000000000000000000000000000008000000000000, //86
00401120,
12101120,
12101120,
1400,
1211,
200000000000000000000000500000000000000000000000000000000008000000000000200000000000000000000000,
1250,
000000000000000008000000000000000000000000000000
#GOGOEND
000000000000000000000000000000000000000000000000, //94
#GOGOSTART
300100101000,
100100101000,
100100101000,
110110,
111114,
0
#GOGOEND
0,
0, //101
#END

COURSE:Easy
LEVEL:5
BALLOON:5,10,5,8
SCOREINIT:510,4270
SCOREDIFF:138
#START
#SCROLL 0.5
0,
#MEASURE 8/4
12,
34,
100110,
200220,
100110,
500000000000000000000000000000000000000000000000000000000000000000000000000000000000000000000008,
#MEASURE 4/4
0,
#BARLINEOFF
#MEASURE 8/4
7008, //9
#BARLINEON
3,
1,
2,
1111,
11,
11,
22,
21,
#MEASURE 4/4
3,
#MEASURE 8/4
10001100,
10001100,
#MEASURE 12/4
100011001000, //21
#MEASURE 8/4
30001100,
10001100,
10001100,
13,
2200,
2200,
2222,
2230, //29
1011,
1011,
2011,
1011,
2012,
1012,
12,
34, //37
#GOGOSTART
1110,
1110,
2220,
2220,
1012,
13,
1110,
500000000000000000000000000000000000000000000000000000000000000000000000000000000008000000000000,
0, //46
2210,
2210,
1120,
1000100000090000,
009,
8,
1111,
500000000000000000000000000000000000000000000000000000000000000000000000000008000000000000000000,
01,
1011,
1222,
#GOGOEND
500000000000000000000000000000000000000008000000000000000000000000000000000000000000000000000000, //58
3,
1,
43,
500000000000000000000000000000000000000000000000000000000000000000000000000008000000000000000000,
0400,
1110,
1110,
500000000000000000000000000000000000000000000000000000000000000000000008000000000000000000000000, //66
#GOGOSTART
2111,
1111,
2111,
500000000000000000000000000000000000000000000008000000000000000000000000000000000000000000000000,
#GOGOEND
1,
0,
1,
0033,
42,
22,
700000000000000000000000000000000000000000000000000000000000000000000000000000000008000000000000,
4, //78
#GOGOSTART
1110,
1110,
2220,
20200700,
00000008,
1011,
2011,
500000000000000000000000000000000000000000000000000000000000000000000000000000000008000000000000, //86
01,
1011,
1222,
1,
1210,
200000000000000000000000500000000000000000000000000000000008000000000000000000000000000000000000,
1250,
000000000000000008000000000000000000000000000000
#GOGOEND
000000000000000000000000000000000000000000000000, //94
#GOGOSTART
3110,
1110,
1112,
11,
200104,
0
#GOGOEND
0,
0, //101
#END
