//TJADB Project
TITLE:FUJIN Rumble
TITLEJA:FUJIN Rumble
SUBTITLE:--COSIO (ZUNTATA)/GROOVE COASTER
SUBTITLEJA:COSIO(ZUNTATA) 「グルーヴコースター」より
BPM:192
WAVE:FUJIN Rumble.ogg
OFFSET:-10.298
DEMOSTART:59.204

COURSE:Oni
LEVEL:10
BALLOON:15
SCOREINIT:460
SCOREDIFF:113
#START
1000201000001021,
1020001000001021,
1000201000001021,
1020001000001021,
1000201000001021,
1020201000001021,
1000201000001021,
12210010,
2222,
20202022,
2222,
2020200020022020,
10212020,
10212202,
1010101010101111,
111111111111,
,
#MEASURE 5/4
00000000000000002211,//18
#GOGOSTART
#MEASURE 4/4
1021012010201211,
1021012020101211,
1021012010201211,
1121012011221122,
1021012210201211,
1021012210201211,
1021012210201122,
1122012211221120,//26
#GOGOEND
30230211,
#MEASURE 3/4
230030,
#MEASURE 4/4
30230211,
#MEASURE 6/4
230033300
#SCROLL 4
400,
#SCROLL 1
#MEASURE 4/4
30230211,
#MEASURE 3/4
230030,
#MEASURE 4/4
30230211,
#MEASURE 7/8
2300330,
#MEASURE 4/4
#SCROLL 4
4,
,
7,
#SCROLL 1
8002,
#MEASURE 5/4
100010001000100010001000100010000000400000000000200200100100,//39
#GOGOSTART
#MEASURE 4/4
1021012010201211,
1021012020101211,
1021012020101211,
1121012011221122,
1021012210201211,
1021012220101211,
1021012220101122,
1121012011221122,
1021012210201211,
1021012220101211,
1021012220101122,
1121012011221122,
1022012211201211,
1022012222101122,
1022122101201122,
1121012211211212,//55
#GOGOEND
1111,
10101011,
10201201,
0010201000111010,
12111211,
1020101011201121,
111101111101,
100100100100100100100100101010101010101010101010,
#MEASURE 3/4
004,//64
#GOGOSTART
#MEASURE 4/4
1020112110220122,
1020112110221222,
1122102120221222,
1122120111121212,
1020112110220122,
1020112110221222,
1122102120221222,
1122102211121210,
#SCROLL 0.5
100100100010100100100010,
101010100100100100101010,
100000100000100000001000100010001000100100100100,
100010001000100000100000100000100100100100100100,
#SCROLL 1.25
100100202010100100102010,
100020001000100000100000100000100100200020002000,
100100200200200010001000200010001000100100200200,
#SCROLL 1.75
100020001000200000100000100000100200100100100200,//80
#SCROLL 1
#GOGOEND
,
,
3,
,
#SCROLL 1.25
1022201010221010,
#SCROLL 1.5
1212122011221112,
,
#SCROLL 4
3,
#END

COURSE:Hard
LEVEL:8
BALLOON:12,6
SCOREINIT:470
SCOREDIFF:123
#START
10210010,
12010012,
10210010,
12010012,
10210012,
12210012,
10210012,
12210010,
2222,
20202022,
2222,
22202022,
10212020,
10212202,
1010101010101110,
500000000000000000000000000000000000000008000000,
,
#MEASURE 5/4
00002,//18
#GOGOSTART
#MEASURE 4/4
1020002010201110,
1020002010201110,
1020002010201110,
1020002011102220,
1020002010201110,
1020002010201110,
1020002010201110,
1022200011102220,//26
#GOGOEND
30030011,
#MEASURE 3/4
040030,
#MEASURE 4/4
30030011,
#MEASURE 6/4
040033300
#SCROLL 3
400,
#SCROLL 1
#MEASURE 4/4
30030011,
#MEASURE 3/4
040030,
#MEASURE 4/4
30030011,
#MEASURE 7/8
0400330,
#MEASURE 4/4
#SCROLL 3
4,
,
7,
#SCROLL 1
8002,
#MEASURE 5/4
111111110400000,//39
#GOGOSTART
#MEASURE 4/4
1020002010201110,
1020002010201110,
1020002010201110,
1022200011102220,
1020002010202220,
1020002010202220,
1020002010202220,
1022200011102220,
1020102010201110,
1020102010201110,
1020102010201110,
1022200011102220,
1020102010201120,
1020102010201120,
1022202020201110,
1022202011102220,//55
#GOGOEND
10201211,
00210010,
10201201,
0010101000111000,
11211121,
11211121,
1010222010222010,
1110111070000000,
#MEASURE 3/4
804,//64
#GOGOSTART
#MEASURE 4/4
1020111010200020,
1020111010200020,
1010222010102220,
1020102011102220,
1020111010200020,
1020111010200020,
1010222010102220,
1110222011102000,
#SCROLL 0.5
100101100101,
101100100111,
100101111101,
101100100100,
#SCROLL 1.5
100101100101,
101100100111,
100101111101,
101100101122,//80
#SCROLL 1
#GOGOEND
,
,
3,
,
1022201010202010,
1010201011111111,
,
#SCROLL 4
3,
#END

COURSE:Normal
LEVEL:6
BALLOON:8,8,4
#START
10010010,
11010010,
10010010,
11010010,
10010020,
11020010,
10010020,
11020010,
22,
2022,
22,
22202020,
1111,
10101101,
11101110,
500000000000000000000000000000000000000008000000,
,
#MEASURE 5/4
,//18
#GOGOSTART
#MEASURE 4/4
10101210,
10101210,
10101210,
12121020,
10101210,
10101210,
10101210,
12121020,//26
#GOGOEND
30030030,
#MEASURE 3/4
040030,
#MEASURE 4/4
30030030,
#MEASURE 6/4
040033300400,
#SCROLL 1
#MEASURE 4/4
30030030,
#MEASURE 3/4
040030,
#MEASURE 4/4
30030030,
#MEASURE 7/8
0400330,
#MEASURE 4/4
#SCROLL 2
4,
,
7,
#SCROLL 1
8004,
#MEASURE 5/4
600000000000000000000000000008000000300000000000000000000000,//39
#GOGOSTART
#MEASURE 4/4
10101210,
10101210,
10101210,
12121020,
10101210,
10101210,
10101210,
12121020,
10101212,
10101212,
10101212,
12111020,
10101212,
10101212,
10101212,
12111020,//55
#GOGOEND
10202201,
00220010,
10202201,
01110220,
10202201,
00110110,
11221212,
7,
#MEASURE 3/4
804,//64
#GOGOSTART
#MEASURE 4/4
12101202,
12101202,
12101212,
12111220,
12101202,
12101202,
12101212,
12111220,
#SCROLL 0.5
100101100100,
101100100100,
100101100100,
101100100100,
#SCROLL 1.5
100101100100,
101100100100,
100101100100,
100000001000100000000000500000000000000800000000,//80
#SCROLL 1
#GOGOEND
,
,
3,
,
10101122,
11227000,
8,
#SCROLL 2
3,
#END

COURSE:Easy
LEVEL:5
BALLOON:6,6,6
#START
10010010,
10010010,
10010010,
10010010,
10010020,
10010020,
10010020,
10010020,
22,
2022,
22,
2220,
1110,
2220,
1122,
500000000000000000000000000000000000000008000000,
,
#MEASURE 5/4
,//18
#GOGOSTART
#MEASURE 4/4
11,
1110,
12,
1120,
11,
1110,
1122,
1120,//26
#GOGOEND
30030030,
#MEASURE 3/4
040030,
#MEASURE 4/4
30030030,
#MEASURE 6/4
040030300400,
#SCROLL 1
#MEASURE 4/4
30030030,
#MEASURE 3/4
040030,
#MEASURE 4/4
30030030,
#MEASURE 7/8
0400300,
#MEASURE 4/4
#SCROLL 2
4,
,
7,
#SCROLL 1
8004,
#MEASURE 5/4
600000000000000000000000000008000000000000000000000000000000,//39
#GOGOSTART
#MEASURE 4/4
11,
1110,
12,
1120,
1110,
2220,
1122,
1120,
1122,
1120,
1212,
1120,
1122,
1122,
1212,
1120,//55
#GOGOEND
10001001,
0220,
00101001,
01020200,
10001001,
0220,
00101001,
7,
#MEASURE 3/4
804,//64
#GOGOSTART
#MEASURE 4/4
1111,
1120,
1212,
1120,
1111,
1120,
1212,
1120,
#SCROLL 0.5
1122,
3302,
1212,
3302,
1122,
3302,
1212,
300000000000300000000000600000000000000008000000,//80
#SCROLL 1
#GOGOEND
,
,
3,
,
1212,
7,
8,
#SCROLL 2
3,
#END
