//TJADB Project
TITLE:Dragon of Winter ~Toryu~
TITLEJA:冬竜 ~Toryu~
SUBTITLE:--Azu♪
SUBTITLEJA:Azu♪
BPM:110
WAVE:Dragon of Winter Toryu.ogg
OFFSET:-3.373
DEMOSTART:20.827

COURSE:Edit
LEVEL:9
SCOREINIT:480
SCOREDIFF:110
#START
3021121121121121,
1121121212112120,
1221221212212212,
100200100100200100100200102020202020202020200000,
4012112101221121,
0112112101010101,
1012112101221122,
1112110400000000,
1021120101012101,
1021120101012101,
1021120020122100,
1011210201012101,
1021120101012101,
1021120101012101,
1021120020122100,
1011210120112111,
1102021102021020,
1102021102021010,
2104012104021111,
2104012104000000,
#MEASURE 3/4
112212112212,
112212112212,
112212112212,
112121112121,
112212112212,
112212112212,
112221112121,
100200100200100200100200101010101010,
102102101110,
102101201210,
102101201110,
102101221210,
122101221110,
122101221210,
122101221110,
#MEASURE 4/4
1102020120000000,
1211200012112000,
1211200012112212,
1211201212112012,
1211200030003000,
1211201212112012,
1211201212112020,
1120121211201212,
1111002222000000,
#GOGOSTART
#SCROLL 2
111100200200111100200100111100200200111100200100,
100111200200100111200100100111200200100111200100,
111222111222112112122121,
201010200200101010200100100200100100200100200100,
100111100200100200100200100111100200100200100200,
100111200200100200100200100111200200100200200100,
111100222200111100222200111111200200100200100200,
1102001102033040,
#GOGOEND
0112112101121121,
0112112303040000,
#END

COURSE:Oni
LEVEL:8
SCOREINIT:550
SCOREDIFF:140
#START
1011011010010010,
1011011010110110,
1011011010010010,
1011011010101011,
1011011010110110,
1011011010110110,
1010101010101010,
100100100100101010101010100000000000000000000000,
1011210101012101,
1011210101012101,
1011210010112100,
1011210101012101,
1011210101012101,
1011210101012101,
1011210010112100,
1011210020102010,
2103012103012121,
2103012103011020,
2103012103012121,
2103012103000000,
#MEASURE 3/4
111222111222,
111222111020,
111222111222,
221221221210,
221211221211,
221211221020,
221211221211,
212121212121,
100200101020,
100200102020,
100200101020,
100200101110,
100200101020,
100200102020,
100200101020,
#MEASURE 4/4
1101010110000000,
1010000010100000,
1010000010101122,
1010002210100022,
1010000030003000,
1011001210110012,
1011001210110010,
1021021010120120,
1111001111000000,
#GOGOSTART
#SCROLL 2
221100221100221100221100,
112200112200112211112211,
211200211200211200211200,
201010201010201010201010200100100000200200000100,
0220110220110221,
0110220110220120,
221221221221221221221221,
1101001101012010,
#GOGOEND
0221211202212112,
0221211203030000,
#END

COURSE:Hard
LEVEL:7
SCOREINIT:660
SCOREDIFF:180
#START
1001001010010000,
1001001010010030,
3001001010010000,
1001001010010010,
1020110010201100,
1020110101010000,
1020110010201100,
1020110100000000,
1011020101020000,
1011020101020000,
1011020010110200,
1011020102010000,
1011020101020000,
1011020101020000,
1011020010110200,
1011020010202010,
1103001103001110,
1103001103001020,
1103001103001110,
1103001103000000,
#MEASURE 3/4
1212,
1212,
1212,
111100222200,
1212,
1212,
1212,
222022201110,
100200101020,
100200102020,
100200101020,
100200102020,
100200101020,
100200102020,
100200102010,
#MEASURE 4/4
1101010110000000,
1212,
1000200010001110,
1000201110002011,
1010000030003000,
1000201110002011,
1000201110102020,
500000000000000000000000000000000000000000000008,
,//44
#SCROLL 1.5
#GOGOSTART
1020102010201020,
1020102010201110,
1020102010201020,
1011011011102202,
0110220110220110,
1110220110220110,
2010201020102010,
1101001101011010,//52
#GOGOEND
0110111101101111,
0110111103030000,
,
#END

COURSE:Normal
LEVEL:5
BALLOON:10
SCOREINIT:950
SCOREDIFF:250
#START
3,
00000003,
3,
,
10111011,
10111000,
10111011,
10113000,
11001120,
11001120,
11002200,
11001120,
11001120,
11001120,
11002210,
2222,
10010011,
10010011,
10010011,
10010000,
#MEASURE 3/4
101101,
101102,
101101,
101100,
101101,
101102,
101101,
500000000000000000000008000000000000,
100211,
100221,
100211,
100221,
100211,
100221,
100211,
#MEASURE 4/4
1,
1111,
10101011,
1212,
1233,
10211020,
10201122,
7,
8,//44
#GOGOSTART
5,
000000000000000000000000000008000000000000000000,
21202120,
21201000,
22022022,
02202202,
500000000000000000000000000008000000000000000000,
30030000,//52
#GOGOEND
33,
3000000303030000,
,
#END

COURSE:Easy
LEVEL:4
BALLOON:5
SCOREINIT:1020
SCOREDIFF:350
#START
3,
,
3,
,
11,
1011,
11,
13,
1011,
1011,
1011,
1011,
1011,
1011,
11,
2222,
10010000,
10010000,
10010000,
10010000,
#MEASURE 3/4
11,
12,
11,
12,
11,
12,
11,
500000000000000008000000000000000000,
12,
12,
12,
12,
12,
12,
12,
#MEASURE 4/4
1,
11,
1011,
11,
1033,
11,
1011,
7,
8,//44
#GOGOSTART
5,
0000000000800000,
1111,
1110,
11,
11,
500000000000000000000000000008000000000000000000,
30030000,//52
#GOGOEND
33,
3000000000030000,
,
#END
