//TJADB Project
TITLE:G Ishiki Kajou
TITLEJA:G意識過剰
SUBTITLE:--Kaneko Chiharu feat. Shizaki Yuki
BPM:200
WAVE:G Ishiki Kajou.ogg
OFFSET:-1.700
DEMOSTART:50.700

COURSE:Oni
LEVEL:9
SCOREINIT:410
SCOREDIFF:100
#START
1010201111201111,
1111100030004000,
1010201111202011,
1111111112222212,
10000001,
0010200010112010,
0010201000112010,
0010200010112010,
0010201000222210,
0011221000112210,
0012221000122210,
0020202012221210,
00000001,
0010101120202010,
0010101120102010,
0010101120202010,
0010101120102010,
0010101120202010,
0011201000112010,
0022202220202010,
0010101120102030,
0010201110102010,
0010201110102030,
0010221000102210,
0010221000102030,
0010201110102030,
02230223,
03333303,
0030303010112010,
11202121,
11201020,
12121212,
1010202010102022,
1000201000002222,
1000201000002222,
122122,
102220102220,
12212212,
200100200200102020102020,
1,
00000001,//41
#GOGOSTART
0011201010102010,
0011201010102011,
1010201110102011,
1010201110102010,
0011201010102010,
0011201010102010,
3333,
30340301,
0010222010102010,
0010222010102000,
1110201000100010,
0010200011112010,
0010200011122010,
0010200011222010,
0010200010101111,
1000101000100011,
1120201120102011,
1120201120102011,
2011201120112011,
2022202220222210,
0011201010102010,
0011201010222211,
1022102210221022,
1111101000100010,
0010222010102010,
0010222010102000,
1110201000100011,
1111111111111000,
1020201000122210,
0011221000111210,
0010201120102011,
2011201120222222,
1010201000201111,
1111100030004000,
1010201110102011,
1111111112222212,
10000001,//78
#GOGOEND
0010200010112010,
0010201000112010,
0010200010112010,
0010201000112010,
0010200010112010,
0011201000112010,
0010200010102011,
1110201000222210,
01404141,
41414141,
40404141,
41414433,
0012221000112210,
0011121000222210,
01111111,
1222111112221111,
1111111111111111,
1,
000000000000000000000000000000200200200010001000,
1,
#END

COURSE:Hard
LEVEL:7
BALLOON:30
#START
12210250,
000000000008000000000000300000000000300000000000,
12210225,
000000000000000000000000000000000008000000000000,
30000001,
01201121,
01210121,
01201121,
01210221,
01120221,
01120225,
000000000000000000000000000000000008000000000000,
00000001,
01110221,
01111221,
01110221,
01111221,
01110221,
01120225,
000000000000000000000000000000000008000000100000,
01111221,
01112221,
01112221,
01110222,
01110221,
01111121,
00101011,
01211101,
21110000,
30000303,
0033,
1212,
11201120,
10120122,
10120122,
122122,
122122,
12212212,
21221220,
3,
00000001,//41
#GOGOSTART
01211021,
01211021,
01210121,
02210221,
01211021,
01211021,
21212121,
20220301,
01201121,
01201120,
30330306,
000000000008000000000000200000000000200000100000,
01201121,
01201125,
000000000000000000000008000000000000100000000000,
10110101,
01111221,
01111221,
01120112,
02210221,
01211021,
01211220,
3333,
30330401,
01201121,
01201120,
30440306,
000000000000000000000000000000000008000000000000,
12210221,
02210111,
01212121,
11112222,
12210250,
000000000008000000000000300000000000300000000000,
12210225,
000000000000000000000000000000000008000000000000,
30000001,//78
#GOGOEND
01201121,
01210121,
01201121,
01210121,
01201121,
01210121,
01201121,
01210221,
01212121,
01212121,
21212121,
21212213,
01140223,
01140223,
01212121,
22112211,
7,
,
,
8,
,
,
#END

COURSE:Normal
LEVEL:6
BALLOON:4,4,4,3,20
#START
10010050,
000000000008000000000000100000000000100000000000,
10010005,
000000000000000000000000000000000008000000000000,
30000001,
00101001,
01010111,
00101001,
01010113,
00030003,
00030006,
000000000000000000000000000000000000000000000008,
00000001,
00110001,
01101101,
00110001,
01101101,
00110001,
00110015,
000000000000000000000008000000000000000000100000,
01101101,
00110001,
01101105,
000008000000000000100000000000100000100000100000,
01110001,
01101011,
00101011,
00202002,
00220000,
10000101,
01001010,
1111,
1111,
30040000,
30040000,
11,
11,
10010010,
01001010,
3,
00000001,//41
#GOGOSTART
00111001,
00111001,
01010102,
02020201,
00111001,
00111000,
2222,
500000000000000008000000000000100000000000000000,
00101011,
0111,
30030306,
000000000000000000000008000000000000000000300000,
00001013,
00001007,
0008,
20220001,
01101001,
01101002,
02020201,
01010101,
00111001,
00111000,
1111,
10110201,
00101011,
0111,
10110107,
0008,
30030003,
00030006,
,
000000000000000000000008000000000000000000000000,
10010500,
000000000008000000000000100000000000100000000000,
10010005,
000000000000000000000000000000000008000000000000,
30000001,//78
#GOGOEND
00101001,
01010111,
00101002,
02020222,
00101001,
01010105,
000000000000000000000008000000000000000000100000,
00010100,
0222,
20202220,
2222,
20202223,
00030003,
00030007,
0008,
7008,
7,
,
,
8,
,
,
#END

COURSE:Easy
LEVEL:5
BALLOON:6,3
#START
30030060,
000000000008000000000000300000000000300000000000,
30030006,
000000000000000000000000000000000000000000000008,
00000001,
00001001,
01010001,
00001001,
01010003,
00030003,
00030006,
000000000000000000000000000000000000000000000008,
00000001,
00010001,
00010101,
00010001,
00010101,
00010001,
00010005,
000000000000000000000008000000000000000000100000,
00010101,
00010001,
00010105,
000008000000000000100000000000100000000000100000,
01010005,
000000000008000000000000100000000000000000100000,
00010001,
00202002,
00020000,
10000101,
01,
11,
11,
30030000,
30030000,
11,
11,
10010010,
01001000,
3,
00000001,//41
#GOGOSTART
00101001,
00101001,
01010105,
000000000000000000000008000000000000000000100000,
00101001,
0110,
11,
500000000000000008000000000000100000000000000000,
00101001,
0110,
30030306,
000000000000000000000008000000000000000000300000,
00000003,
00000007,
0008,
00000001,
00101001,
00101001,
01010001,
01010001,
00101001,
0110,
11,
10010100,
00101001,
0110,
10010107,
08,
30030003,
00030006,
,
000000000000000000000008000000000000000000000000,
10010050,
000000000008000000000000100000000000100000000000,
10010005,
000000000000000000000000000000000008000000000000,
30000001,//78
#GOGOEND
00101001,
00010001,
00101001,
00010001,
00101001,
00010005,
000000000000000000000008000000000000000000100000,
00010100,
00101001,
01010100,
00202002,
02020003,
00030003,
00030006,
,
000000000000000000000000000000000000000000000008,
,
,
,
,
,
,
#END
