//TJADB Project
TITLE:Gashadokuro
TITLEJA:がしゃどくろ
SUBTITLE:--Hisui
BPM:236
WAVE:Gashadokuro.ogg
OFFSET:-2.114
DEMOSTART:86.128

COURSE:Oni
LEVEL:8
BALLOON:8,15
SCOREINIT:470
SCOREDIFF:120
#START
#SCROLL 0.65
10210212,
#MEASURE 2/4
1122,
#MEASURE 4/4
01021021,
#MEASURE 3/4
222020201020,
#MEASURE 4/4
10210212,
#MEASURE 2/4
1122,
#MEASURE 4/4
01021021,
#MEASURE 3/4
222020201020,
101001,
120,
101001,
121,
101001,
120,
101001,
122022,
101001,
120,
101001,
102212,
100120,
101120,
101011,
210110,
1,
#MEASURE 4/4
3,
#MEASURE 3/4
022021,
#MEASURE 4/4
10102021,
#MEASURE 3/4
012020,
#MEASURE 4/4
10010070,
#MEASURE 3/4
008,
#MEASURE 4/4
20010101,
#MEASURE 3/4
010120,
#MEASURE 4/4
3,
#MEASURE 3/4
022011,
#MEASURE 4/4
10210210,
#MEASURE 3/4
120210,
#MEASURE 4/4
10010020,
#MEASURE 3/4
022022,
#MEASURE 4/4
5,
#MEASURE 3/4
000000000000000000000008000000000000,
3,
,
212212,
222,
3,
,
212212,
211121,
101001,
202110,
101001,
212121,
101001,
202110,
111121,
202020222020,
11,
200102,
11,
221220,
11,
200102,
102022,
102020111010,
11,
200102,
1111,
2222,
111220,
111220,
7,
008,
#MEASURE 5/4
3,
#MEASURE 3/4
1,
#MEASURE 4/4
22120202,
#MEASURE 5/4
1,
#MEASURE 3/4
100022,
#MEASURE 4/4
1020002000111000,
#MEASURE 5/4
1101012010,
#MEASURE 3/4
110101,
#MEASURE 7/8
1220220,
#MEASURE 5/4
1101012020,
#MEASURE 3/4
110101,
#MEASURE 7/8
1220220,
#MEASURE 5/4
11102010001020001000,
#MEASURE 3/4
111020100010,
#MEASURE 7/8
1221220,
#MEASURE 5/4
11102010001020001000,
#MEASURE 3/4
111020100010,
#MEASURE 7/8
1221111,
#MEASURE 4/4
10210212,
#MEASURE 2/4
1122,
#MEASURE 4/4
01021021,
#MEASURE 3/4
222020201020,
#MEASURE 4/4
10210210,
#MEASURE 2/4
221221,
#MEASURE 4/4
01021021,
#MEASURE 5/8
02222,
#MEASURE 6/4
111010102020202000000000,//100
#GOGOSTART
#MEASURE 4/4
10012011,
01201120,
10102021,
#MEASURE 3/4
012020,
#MEASURE 4/4
10102221,
01022102,
10102221,
#MEASURE 3/4
002220102000,
#MEASURE 4/4
10012011,
02020210,
10102021,
#MEASURE 3/4
012020,
#MEASURE 4/4
10102221,
0010002220100010,
10102021,
#MEASURE 3/4
010201,
#MEASURE 4/4
20202221,
#MEASURE 3/4
010201,//118
#GOGOEND
#MEASURE 4/4
10020020,
#MEASURE 3/4
220,
#MEASURE 4/4
20020020,
#MEASURE 3/4
220,
#MEASURE 4/4
20020020,
#MEASURE 3/4
220,
#MEASURE 4/4
20020022,
#MEASURE 3/4
020211,
#MEASURE 4/4
10020020,
#MEASURE 3/4
220,
#MEASURE 4/4
20020020,
#MEASURE 3/4
020210,
#MEASURE 4/4
02001001,
#MEASURE 3/4
012012,
#MEASURE 4/4
20020202,
#MEASURE 3/4
020210,
#MEASURE 4/4
1100001010002000,
#MEASURE 3/4
100011100010,
#MEASURE 4/4
1000200010001111,
#MEASURE 3/4
001010002222,
#MEASURE 5/4
2,
33020,
3030300220,
30003000300030000022,
20333,
300300000202020,
23333,
30003000000000000011,
2112011201,
20101020002011221111,
#MEASURE 4/4
10210212,
#MEASURE 2/4
1122,
#MEASURE 4/4
01001003,
#END

COURSE:Hard
LEVEL:7
BALLOON:11,20
SCOREINIT:580
SCOREDIFF:153
#START
#SCROLL 0.65
10210210,
#MEASURE 2/4
,
#MEASURE 4/4
01021021,
#MEASURE 3/4
002222,
#MEASURE 4/4
10210210,
#MEASURE 2/4
,
#MEASURE 4/4
01021021,
#MEASURE 3/4
002222,
101001,
1,
101001,
120,
101001,
1,
101001,
122020,
101001,
1,
101001,
102220,
100110,
112,
101001,
102220,
1,
#MEASURE 4/4
3,
#MEASURE 3/4
,
#MEASURE 4/4
10102001,
#MEASURE 3/4
012020,
#MEASURE 4/4
1,
#MEASURE 3/4
,
#MEASURE 4/4
20010101,
#MEASURE 3/4
011010,
#MEASURE 4/4
3,
#MEASURE 3/4
,
#MEASURE 4/4
10210210,
#MEASURE 3/4
002210,
#MEASURE 4/4
10010020,
#MEASURE 3/4
022022,
#MEASURE 4/4
5,
#MEASURE 3/4
000000000000000000000008000000000000,
3,
,
111110,
222,
3,
,
222220,
3,
101001,
2,
101001,
222,
101001,
2,
111120,
111120,
11,
2,
11,
220220,
11,
2,
11,
222111,
11,
2,
11,
220202,
11,
21,
7,
008,
#MEASURE 5/4
3,
#MEASURE 3/4
1,
#MEASURE 4/4
22020202,
#MEASURE 5/4
1,
#MEASURE 3/4
1,
#MEASURE 4/4
22020202,
#MEASURE 5/4
1101011000,
#MEASURE 3/4
110101,
#MEASURE 7/8
1220220,
#MEASURE 5/4
1101011000,
#MEASURE 3/4
110101,
#MEASURE 7/8
1220220,
#MEASURE 5/4
1101012010,
#MEASURE 3/4
110101,
#MEASURE 7/8
1221220,
#MEASURE 5/4
1101012010,
#MEASURE 3/4
110101,
#MEASURE 7/8
1221000,
#MEASURE 4/4
10210210,
#MEASURE 2/4
,
#MEASURE 4/4
01021021,
#MEASURE 3/4
002222,
#MEASURE 4/4
10210210,
#MEASURE 2/4
,
#MEASURE 4/4
01021021,
#MEASURE 5/8
02222,
#MEASURE 6/4
111122220000,//100
#GOGOSTART
#MEASURE 4/4
30011001,
01201000,
10102001,
#MEASURE 3/4
012020,
#MEASURE 4/4
10102221,
01022000,
10102221,
#MEASURE 3/4
010220,
#MEASURE 4/4
10011001,
02020210,
10102001,
#MEASURE 3/4
012020,
#MEASURE 4/4
10102221,
01022010,
10102001,
#MEASURE 3/4
010200,
#MEASURE 4/4
10102001,
#MEASURE 3/4
010200,//118
#GOGOEND
#MEASURE 4/4
30020020,
#MEASURE 3/4
2,
#MEASURE 4/4
20020020,
#MEASURE 3/4
2,
#MEASURE 4/4
20020020,
#MEASURE 3/4
2,
#MEASURE 4/4
20020022,
#MEASURE 3/4
010100,
#MEASURE 4/4
10020020,
#MEASURE 3/4
2,
#MEASURE 4/4
20020020,
#MEASURE 3/4
2,
#MEASURE 4/4
20020020,
#MEASURE 3/4
2,
#MEASURE 4/4
10210010,
#MEASURE 3/4
210010,
#MEASURE 4/4
7,
#MEASURE 3/4
,
#MEASURE 4/4
0008,
#MEASURE 3/4
222022,
#MEASURE 5/4
1,
33000,
33300,
33330,
00333,
33000,
03333,
33000,
1111010101,
1111010101,
#MEASURE 4/4
10210210,
#MEASURE 2/4
2222,
#MEASURE 4/4
01001003,//444combo
,
,
,
#END

COURSE:Normal
LEVEL:6
BALLOON:7,7,16
SCOREINIT:760
SCOREDIFF:230
#START
#SCROLL 0.65
10010010,
#MEASURE 2/4
,
#MEASURE 4/4
01001001,
#MEASURE 3/4
,
#MEASURE 4/4
10010010,
#MEASURE 2/4
,
#MEASURE 4/4
01001001,
#MEASURE 3/4
,
110,
1,
110,
1,
110,
1,
110,
220,
110,
1,
110,
1,
100110,
1,
5,
000000000000000000000000000000000008,
,
#MEASURE 4/4
3,
#MEASURE 3/4
,
#MEASURE 4/4
7,
#MEASURE 3/4
8,
#MEASURE 4/4
3,
#MEASURE 3/4
,
#MEASURE 4/4
7,
#MEASURE 3/4
8,
#MEASURE 4/4
3,
#MEASURE 3/4
,
#MEASURE 4/4
20020020,
#MEASURE 3/4
,
#MEASURE 4/4
3,
#MEASURE 3/4
022,
#MEASURE 4/4
1,
#MEASURE 3/4
,
111,
1,
110,
2,
111,
1,
110,
2,
111,
1,
110,
2,
111,
1,
222,
2,
11,
1,
11,
2,
11,
1,
11,
3,
11,
1,
11,
2,
11,
22,
5,
000000000008000000000000000000000000,
#MEASURE 5/4
3,
#MEASURE 3/4
222,
#MEASURE 4/4
2,
#MEASURE 5/4
3,
#MEASURE 3/4
222,
#MEASURE 4/4
2,
#MEASURE 5/4
1001011000,
#MEASURE 3/4
100101,
#MEASURE 7/8
1,
#MEASURE 5/4
1001011000,
#MEASURE 3/4
100101,
#MEASURE 7/8
1,
#MEASURE 5/4
1001011000,
#MEASURE 3/4
100101,
#MEASURE 7/8
1,
#MEASURE 5/4
1001011000,
#MEASURE 3/4
100101,
#MEASURE 7/8
1,
#MEASURE 4/4
10010010,
#MEASURE 2/4
,
#MEASURE 4/4
01001001,
#MEASURE 3/4
,
#MEASURE 4/4
10010010,
#MEASURE 2/4
,
#MEASURE 4/4
01001001,
#MEASURE 5/8
,
#MEASURE 6/4
3,//100
#GOGOSTART
#MEASURE 4/4
10010010,
,
10001002,
#MEASURE 3/4
020,
#MEASURE 4/4
10010010,
,
500000000000000000000000000000000000000000000008,
#MEASURE 3/4
,
#MEASURE 4/4
10010010,
,
10001002,
#MEASURE 3/4
020,
#MEASURE 4/4
10010030,
,
10101002,
#MEASURE 3/4
020200,
#MEASURE 4/4
10101002,
#MEASURE 3/4
020200,//118
#GOGOEND
#MEASURE 4/4
12,
#MEASURE 3/4
2,
#MEASURE 4/4
22,
#MEASURE 3/4
2,
#MEASURE 4/4
22,
#MEASURE 3/4
2,
#MEASURE 4/4
20002001,
#MEASURE 3/4
,
#MEASURE 4/4
12,
#MEASURE 3/4
2,
#MEASURE 4/4
22,
#MEASURE 3/4
2,
#MEASURE 4/4
22,
#MEASURE 3/4
2,
#MEASURE 4/4
20002001,
#MEASURE 3/4
,
#MEASURE 4/4
7,
#MEASURE 3/4
,
#MEASURE 4/4
0008,
#MEASURE 3/4
,
#MEASURE 5/4
3,
33000,
33300,
33330,
00333,
33000,
03333,
33000,
1111000000,
1111000000,
#MEASURE 4/4
10010010,
#MEASURE 2/4
,
#MEASURE 4/4
03003003,//242combo
,
,
,
#END

COURSE:Easy
LEVEL:5
BALLOON:6,6,6,6,6,18
SCOREINIT:650
SCOREDIFF:195
#START
#SCROLL 0.65
10010010,
#MEASURE 2/4
,
#MEASURE 4/4
01001001,
#MEASURE 3/4
,
#MEASURE 4/4
10010010,
#MEASURE 2/4
,
#MEASURE 4/4
01001001,
#MEASURE 3/4
,
1,
1,
110,
,
1,
1,
110,
,
1,
1,
110,
,
111,
1,
5,
000000000000000000000000000000000008,
,
#MEASURE 4/4
3,
#MEASURE 3/4
,
#MEASURE 4/4
7,
#MEASURE 3/4
8,
#MEASURE 4/4
3,
#MEASURE 3/4
,
#MEASURE 4/4
7,
#MEASURE 3/4
8,
#MEASURE 4/4
3,
#MEASURE 3/4
,
#MEASURE 4/4
10010010,
#MEASURE 3/4
,
#MEASURE 4/4
3,
#MEASURE 3/4
,
#MEASURE 4/4
4,
#MEASURE 3/4
,
111,
1,
1,
,
111,
1,
2,
2,
111,
1,
1,
,
111,
1,
2,
2,
1,
110,
5,
000000000008000000000000000000000000,
1,
110,
5,
000000000008000000000000000000000000,
1,
110,
5,
000000000008000000000000000000000000,
1,
222,
7,
8,
#MEASURE 5/4
3,
#MEASURE 3/4
222,
#MEASURE 4/4
,
#MEASURE 5/4
3,
#MEASURE 3/4
222,
#MEASURE 4/4
,
#MEASURE 5/4
1100000000,
#MEASURE 3/4
110000,
#MEASURE 7/8
3,
#MEASURE 5/4
1100000000,
#MEASURE 3/4
110000,
#MEASURE 7/8
4,
#MEASURE 5/4
1100000000,
#MEASURE 3/4
110000,
#MEASURE 7/8
3,
#MEASURE 5/4
1100000000,
#MEASURE 3/4
110000,
#MEASURE 7/8
4,
#MEASURE 4/4
10010010,
#MEASURE 2/4
,
#MEASURE 4/4
01001001,
#MEASURE 3/4
,
#MEASURE 4/4
10010010,
#MEASURE 2/4
,
#MEASURE 4/4
01001001,
#MEASURE 5/8
,
#MEASURE 6/4
3,//100
#GOGOSTART
#MEASURE 4/4
10010010,
,
7,
#MEASURE 3/4
8,
#MEASURE 4/4
10010010,
,
20020020,
#MEASURE 3/4
,
#MEASURE 4/4
10010010,
,
7,
#MEASURE 3/4
8,
#MEASURE 4/4
10010010,
,
7,
#MEASURE 3/4
,
#MEASURE 4/4
,
#MEASURE 3/4
8,//118
#GOGOEND
#MEASURE 4/4
3,
#MEASURE 3/4
,
#MEASURE 4/4
500000000000000000000000000000000000000000000008,
#MEASURE 3/4
,
#MEASURE 4/4
4,
#MEASURE 3/4
,
#MEASURE 4/4
10010010,
#MEASURE 3/4
,
#MEASURE 4/4
3,
#MEASURE 3/4
,
#MEASURE 4/4
20020020,
#MEASURE 3/4
,
#MEASURE 4/4
5,
#MEASURE 3/4
,
#MEASURE 4/4
000000000000000000000000000000000000000000000008,
#MEASURE 3/4
,
#MEASURE 4/4
1011,
#MEASURE 3/4
,
#MEASURE 4/4
1011,
#MEASURE 3/4
,
#MEASURE 5/4
3,
11000,
11100,
11110,
00111,
11000,
01111,
11000,
3,
,
#MEASURE 4/4
10010010,
#MEASURE 2/4
,
#MEASURE 4/4
03003003,
,
,
,
#END
