//TJADB Project
TITLE:KAGEKIYO -New Chart-
TITLEJA:KAGEKIYO
SUBTITLE:--Yuuji Masubuchi/Genpei Touma Den Medley
SUBTITLEJA:新譜面 ~源平討魔伝メドレー~
BPM:130.81
WAVE:KAGEKIYO Genpei Touma Den Medley.ogg
OFFSET:-2.173
DEMOSTART:19.727 //Shinuchi:
5700/3920/1580/1290/990

COURSE:Edit
LEVEL:10
BALLOON:
SCOREINIT:380,1000
SCOREDIFF:90
#START
300000200200101010100000300000200200101010100000,
#BPMCHANGE 126.65
122122500000,
#BPMCHANGE 133.8
0,
#BPMCHANGE 134.1
080000000000000000000000,
#BPMCHANGE 125.66
#SCROLL 1.06
1000202010222010,
#BPMCHANGE 127.92
#SCROLL 1.04
1000002020000022,
#BPMCHANGE 130.83
#SCROLL 1
1000202010222010,
#MEASURE 2/4
#BPMCHANGE 131.71
1022,
#BARLINEOFF
#MEASURE 4/4
#BPMCHANGE 130
100000100100200010102000100200100100200010102000,
#BARLINEON
1112212121221200, //10
#GOGOSTART
1011210110112101,
1011210111211120,
1011210110112101,
1011210111211120,
#MEASURE 2/4
12112212,
#GOGOEND
#BARLINEOFF
#MEASURE 4/4
100100101010200100100100100100101010200100100100,
#BARLINEON
100100101010200100100100200100200100200100200100,
100100101010200100100100100100101010200100100100,
100100101010200100100100200100200100200100200100,
#MEASURE 2/4
12112212, //20
#BARLINEOFF
#MEASURE 4/4
100000001010200100200200100200200100200200100000,
#BARLINEON
101010000000202020000000101010000000200200100000,
100000001010200100200200100200200100200200100000,
111000222000111000300000,
#GOGOSTART
1011210110112101,
1011210111211120,
1011210110112101,
1011210111211120,
#GOGOEND
#MEASURE 2/4
12112212, //29
#BARLINEOFF
#MEASURE 4/4
1021120112211021,
#BARLINEON
1021120112212112,
1021120112211021,
1021120112212112,
1021120112211021,
1021120112212112,
1021120112211012,
2112122112122112, //37
100000200000100100200000100010200010100100200000,
100000200000100100200000100010200010100100200000,
100000200000100100200000100010200010100100200000,
100000200000100100200000100010200010100010200000,
100000200000100100200000100010200010100100200000,
100000200000100100200000100010200010100100200000,
100000200000100100200000100010200010100100200000,
100000200000100100200000100010200010100010200010,
10001011,
1111211211112112,
100100100100200100100200100200100100201010100000,
#MEASURE 2/4
30302222, //49
#BARLINEOFF
#MEASURE 4/4
#GOGOSTART
100000101010200100000100100000101010200100000100,
#BARLINEON
100000101010200100000100100100200200100100200000,
100000101010200100000100100000101010200100000100,
100000101010200100000100100100200200100100200000,
#GOGOEND
#MEASURE 2/4
12112212,
#BARLINEOFF
#MEASURE 4/4
100100101010200100100100100100101010200100100100,
#BARLINEON
100100101010200100100100200100200100200100200100,
100100101010200200100100100100101010200200100100,
100100101010200200100100200100200100200100200100,
#MEASURE 2/4
12112212, //59
#BARLINEOFF
#MEASURE 4/4
1021120112021121,
#BARLINEON
1021120112011221,
1021120112021121,
1021120112011221,
1021120112112021,
1021120112112021,
2021120202112020,
1202220222020300, //67
1021120112211021,
1021120221122021,
1021120112211021,
1021120221122021,
1021120112122121,
1021120112122121,
1022110022110020,
1100201102010300, //75
#GOGOSTART
100000101010200100000100100000101010200100000100,
100000101010200100100200100100200100200000000000,
100000101010200100000100100000101010200100000100,
100000101010200100100200100100200100200000000100, //79 //Limitation:
Correct condition is accuracy of the 7 big notes //7
Good ->
#M,
3-6 Good ->
#E,
0-2 Good ->
#N
#SECTION
#BRANCHSTART p,75,90
#N
100000201010200100000100200000000000300000000100,
100000201010200100000100200000000000300000000100,
100000201010200100000100200000000000300000000100,
100000201010200100000100508000000000000000000000,
#GOGOEND
0,
0, //n85
#E
100000201010200100000100200000000000300000000100,
100000201010200100000100200000000000300000000100,
100000201010200100000100200000000000300000000100,
100000201010200100100100508000000000000000000000,
#GOGOEND
0,
0, //e85
#M
100000201010200100000100200000000000300000000100,
100000201010200100000100200000000000300000000100,
100000201010200100000100200000000000300000000100,
100000201010200100100100100000000000000000000000,
#GOGOEND
0,
0, //m85
#BRANCHEND
#END

COURSE:Oni
LEVEL:8
BALLOON:
SCOREINIT:410,1310
SCOREDIFF:108
#START
11,
#BPMCHANGE 126.65
1150,
#BPMCHANGE 133.8
0,
#BPMCHANGE 134.1
080000000000000000000000,
#BPMCHANGE 125.66
#SCROLL 1.02
00001111,
#BPMCHANGE 127.92
#SCROLL 1
20022000,
#BPMCHANGE 130.83
#SCROLL 0.98
00001111,
#MEASURE 2/4
#BPMCHANGE 131.71
#SCROLL 1
2022,
#MEASURE 4/4
#BPMCHANGE 130
1011200012112000,
1112010101011200, //10
#GOGOSTART
1011210110112101,
1011210111201120,
1011210110112101,
1011210111201120,
#MEASURE 2/4
10111111,
#GOGOEND
#MEASURE 4/4
0011201100112011,
0011201110101010,
0011201100112011,
0011201110101010,
#MEASURE 2/4
10102211, //20
#MEASURE 4/4
1001112210000000,
1100220011002210,
1001112210000000,
1100220011103000,
#GOGOSTART
1011210110112101,
1011210111201120,
1011210110112101,
1011210111201120,
#GOGOEND
#MEASURE 2/4
10222222, //29
#MEASURE 4/4
1001100110011020,
1001100110011221,
1001100110011020,
1001100112211221,
1001100110011020,
1001100110011221,
1001100112211012,
2110122110000000, //37
1020112010201120,
1020112010201120,
1020112010201120,
1020112011211121,
1020112010201120,
1020112010201120,
1020112010201120,
1121112111111111,
1011,
1010201210102012,
1010201212101110,
#MEASURE 2/4
3, //49
#MEASURE 4/4
#GOGOSTART
1011210110112101,
1011210111201120,
1011210110112101,
1011210111201120,
#GOGOEND
#MEASURE 2/4
10111111,
#MEASURE 4/4
1011201110112011,
1011201110101010,
1011221110112211,
1011221110101010,
#MEASURE 2/4
10101111, //59
#MEASURE 4/4
1021120112011021,
1021120112011021,
1021120112011021,
1021120112022022,
1021120112011021,
1021120112011021,
2020020202002020,
1202220222020300, //67
1021120112011021,
1021120112011021,
1021120112011021,
1021120112020211,
1021120112011021,
1021120112011021,
0020110020110020,
1100201100100300, //75
#GOGOSTART
1011210110112101,
1011210110003000,
1011210110112101,
1011210110003000,
1011210110003000,
1011210110003000,
1011210110003000,
1011110110000000,
#GOGOEND
0,
0, //85
#END

COURSE:Hard
LEVEL:7
BALLOON:8
SCOREINIT:430,1620
SCOREDIFF:105
#START
11,
#BPMCHANGE 126.65
1150,
#BPMCHANGE 133.8
0,
#BPMCHANGE 134.1
080000000000000000000000,
#BPMCHANGE 125.66
#SCROLL 1.02
00001111,
#BPMCHANGE 127.92
#SCROLL 1
20022000,
#BPMCHANGE 130.83
#SCROLL 0.98
10001111,
#MEASURE 2/4
#BPMCHANGE 131.71
#SCROLL 1
2022,
#MEASURE 4/4
#BPMCHANGE 130
1000200010112000,
7000000008001200, //10
#GOGOSTART
1011200010112000,
1011200011101110,
1011200010112000,
1011200011101110,
#MEASURE 2/4
3,
#GOGOEND
#MEASURE 4/4
0011201100112011,
0011201110101010,
0011201100112011,
0011201110101010,
#MEASURE 2/4
10101110, //20
#MEASURE 4/4
1001102010000000,
1100220011002220,
1001102010000000,
1100220011103000,
#GOGOSTART
1011200010112000,
1011200011101110,
1011200010112000,
1011200011101110,
#GOGOEND
#MEASURE 2/4
3, //29
#MEASURE 4/4
1001100110011020,
1001100110011020,
1001100110011020,
1001100020020020,
1001100110011020,
1001100110011020,
1111100022222011,
1110222210000000, //37
1020111010201110,
1020111010201110,
1020111010201110,
1020111011101110,
1020111010201110,
1020111010201110,
1020111010201110,
1110111011111111,
1011,
1010200210102002,
1010200211101110,
#MEASURE 2/4
3, //49
#MEASURE 4/4
#GOGOSTART
1011200010112000,
1011200011101110,
1011200010112000,
1011200011101110,
#GOGOEND
#MEASURE 2/4
3,
#MEASURE 4/4
0011201100112011,
0011201110101010,
0011221100112211,
0011221110101010,
#MEASURE 2/4
3, //59
#MEASURE 4/4
1021100110011020,
1021100110011020,
1021100110011020,
1021100110022020,
1021100110011020,
1021100110011020,
2020020202002020,
1000100010100300, //67
1021100110011020,
1021100110011020,
1021100110011020,
1021100110022020,
1021100110011020,
1021100110011020,
0010110010110010,
1100101100100300, //75
#GOGOSTART
1011200010112000,
1011200010003000,
1011200010112000,
1011200010003000,
1011110110003000,
1011220220003000,
1011110110003000,
1011220210000000,
#GOGOEND
0,
0, //85
#END

COURSE:Normal
LEVEL:5
BALLOON:
SCOREINIT:720,4060
SCOREDIFF:235
#START
33,
#BPMCHANGE 126.65
1150,
#BPMCHANGE 133.8
0,
#BPMCHANGE 134.1
080000000000000000000000,
#BPMCHANGE 125.66
#SCROLL 1.02
12,
#BPMCHANGE 127.92
#SCROLL 1
11002000,
#BPMCHANGE 130.83
#SCROLL 0.98
12,
#MEASURE 2/4
#BPMCHANGE 131.71
#SCROLL 1
1100,
#MEASURE 4/4
#BPMCHANGE 130
500000000000000000000000000000000000000000000008,
0, //10
#GOGOSTART
11101010,
10111000,
11101010,
10111000,
#GOGOEND
#MEASURE 2/4
0,
#MEASURE 4/4
0000110000001100,
00001111,
0000220000002200,
00001111,
#MEASURE 2/4
0, //20
#MEASURE 4/4
12,
1100000022000000,
12,
1100000022000000,
#GOGOSTART
11101010,
10111000,
11101010,
10111000,
#GOGOEND
#MEASURE 2/4
0, //29
#MEASURE 4/4
1000000011000000,
1000000011000000,
1000000022000011,
1001000000000000,
1000000011000000,
1000000011000000,
10001110,
0, //37
11020000,
1200,
11001100,
11000000,
11020000,
1200,
11001100,
500000000000000000000000000000000000000000000008,
0033,
1200,
1210,
#MEASURE 2/4
0, //49
#MEASURE 4/4
#GOGOSTART
11101110,
10111000,
11101110,
10111000,
#GOGOEND
#MEASURE 2/4
0,
#MEASURE 4/4
0000110000001100,
00001111,
0000110000001100,
00001111,
#MEASURE 2/4
0, //59
#MEASURE 4/4
11,
11001000,
11,
11001000,
11,
2220,
0,
10101100, //67
11,
11002000,
11,
11002000,
1212,
1212,
1000000010010010,
0100100000000000, //75
#GOGOSTART
11101110,
10111000,
11101110,
10111000,
11101030,
11101030,
11101030,
11103000,
#GOGOEND
0,
0, //85
#END

COURSE:Easy
LEVEL:4
BALLOON:10
SCOREINIT:650,6020
SCOREDIFF:245
#START
33,
#BPMCHANGE 126.65
1150,
#BPMCHANGE 133.8
0,
#BPMCHANGE 134.1
080000000000000000000000,
#BPMCHANGE 125.66
#SCROLL 1.02
12,
#BPMCHANGE 127.92
#SCROLL 1
11,
#BPMCHANGE 130.83
#SCROLL 0.98
12,
#MEASURE 2/4
#BPMCHANGE 131.71
#SCROLL 1
1,
#MEASURE 4/4
#BPMCHANGE 130
500000000000000000000000000000000000000000000008,
0, //10
#GOGOSTART
11,
1110,
11,
1110,
#MEASURE 2/4
0,
#GOGOEND
#MEASURE 4/4
11,
13,
11,
13,
#MEASURE 2/4
0, //20
#MEASURE 4/4
12,
1110,
12,
1110,
#GOGOSTART
11,
1110,
11,
1110,
#GOGOEND
#MEASURE 2/4
0, //29
#MEASURE 4/4
1000000011000000,
1000000011000000,
1000000011000000,
1,
1000000011000000,
1000000011000000,
17,
000000080000, //37
10001100,
1100,
10001100,
1100,
10001100,
1100,
11001100,
500000000000000000000000000000000000000000000008,
0,
11,
1111,
#MEASURE 2/4
0, //49
#MEASURE 4/4
#GOGOSTART
11,
1110,
11,
1110,
#GOGOEND
#MEASURE 2/4
0,
#MEASURE 4/4
11,
13,
11,
13,
#MEASURE 2/4
0, //59
#MEASURE 4/4
11,
11001000,
11,
11001000,
11,
2220,
0,
10101100, //67
1,
11002000,
1,
11002000,
1210,
1210,
15,
000000000000000000000000000008000000000000000000, //75
#GOGOSTART
11,
1110,
11,
1110,
1110,
1110,
1110,
1130,
#GOGOEND
0,
0, //85
#END
