//TJADB Project
TITLE:Geragerapo no Uta
TITLEJA:ゲラゲラポーのうた
SUBTITLE:--King Cream Soda/Yo-kai Watch
SUBTITLEJA:「妖怪ウォッチ」より
BPM:120
WAVE:Geragerapo no Uta.ogg
OFFSET:-2.269
DEMOSTART:2.257

COURSE:Oni
LEVEL:7
SCOREINIT:890
SCOREDIFF:268
#START
10101001,
01101440,
10101033,
03333040,
5,
000000000000000000000008000000000000000000000000,
1011201120002010,
1012101210002010,
1011201120102011,
1012101210202022,
1010200012102000,
1010201212102010,
1202120212102030,
02222240,
10212021,
10212020,
1022201020222010,
1022201020002022,
10212021,
10212020,
1022201020222010,
2222201020002022,
10212121,
10212020,
1022201020222010,
1022201020002022,
2010201020102022,//27
#GOGOSTART
1022102210201010,
0020102010222000,
1022102210201010,
0020102010202222,
1022102210201010,
0020102010222020,
1022102210201010,
0020102010222020,
1022102212101012,
1022101210222020,
1022102212102012,
1022101210221222,
1022102212101030,
03333000,//41
#GOGOEND
#END

COURSE:Hard
LEVEL:5
SCOREINIT:850
SCOREDIFF:265
#START
10101001,
01101000,
10101033,
03333040,
5,
000000000000000000000008000000000000000000000000,
11211020,
11221020,
11211020,
11112020,
1010200011102000,
1010200011102000,
1010200011102030,
02222230,
10212021,
10212020,
5,
000000000000000000000000000008000000000000000000,
10212021,
10212020,
5,
000000000000000000000000000008000000000000000000,
10212121,
10212020,
10212121,
1000201020002022,
2010201020102011,//27
#GOGOSTART
1020102010222010,
0020102010222000,
1020102010222010,
0020102010222000,
1020102010222010,
0020102010222000,
1020102010222010,
0020102010222000,
1020102010222010,
0020102010222000,
34343443,
0040304030222220,
34343433,
03333000,//41
#GOGOEND
,
#END

COURSE:Normal
LEVEL:4
BALLOON:10
SCOREINIT:1060
SCOREDIFF:420
#START
10101001,
0110,
10101033,
0330,
5,
000000000000000000000008000000000000000000000000,
1212,
1110,
1212,
1120,
11001010,
11002020,
11001013,
,
10111020,
10111020,
5,
000000000000000000000000000008000000000000000000,
10111010,
20222020,
5,
000000000000000000000000000008000000000000000000,
10111020,
10112020,
10111020,
10002022,
7008,//27
#GOGOSTART
10101001,
01101000,
10101011,
01101000,
10101001,
01101220,
10101011,
01101220,
10101001,
01101220,
30303033,
03303440,
600000000000000000000000000008000000000000300000,
03333000,//41
#GOGOEND
,
#END

COURSE:Easy
LEVEL:3
BALLOON:5
SCOREINIT:990
SCOREDIFF:653
#START
10101001,
0110,
10101033,
0330,
5,
000000000000000000000008000000000000000000000000,
11,
1110,
22,
2220,
11000000,
11000000,
11000003,
,
11,
1110,
5,
000000000000000000000000000008000000000000000000,
11,
1110,
5,
000000000000000000000000000008000000000000000000,
1011,
1011,
11,
12,
7008,//27
#GOGOSTART
10101001,
0110,
10101001,
0110,
10101001,
0110,
20202002,
0220,
10101001,
0110,
30303033,
0330,
600000000000000000000000000008000000000000300000,
0330,//41
#GOGOEND
,
#END
