//TJADB Project
TITLE:Yami no Mahou Shoujo
TITLEJA:闇の魔法少女
SUBTITLE:--Silver Forest feat. Aki
SUBTITLEJA:Silver Forest feat.アキ
BPM:200
WAVE:Yami no Mahou Shoujo.ogg
OFFSET:-1.438
DEMOSTART:53.031

COURSE:Oni
LEVEL:9
BALLOON:3,3,3,3,3,3,3,3
SCOREINIT:230
SCOREDIFF:60
#START
41141141,
14114440,//2
#GOGOSTART
1011201010112011,
1011201120112000,
1011201010112011,
1011201120112220,
1022102010221020,
1022102210221000,
1022102010221020,
1101221011221122,//10
#GOGOEND
1011101110102011,
1011101010112011,
1010211010112010,
1010211010404000,
1011101110102011,
1011101010112011,
1010211010112011,
1010211010404000,
1011201110102011,
1011201010112011,
1010211010112011,
14443434,
1011201110102011,
1011201010112011,
1010211010112011,
1010211010404000,
1011201000112210,
1011201000112210,
1011201000221122,
1011201022101022,
1011201000112210,
1022102010221020,
1011201000112010,
0011201011201122,
1011201020102211,
1011201020102211,
1011201020102211,
1011201011112000,
1110201110102110,
1110201120112000,
1022102210221222,
1022102222221022,
1334,//43
#GOGOSTART
1011201020102210,
1011201020112211,
1011201020102210,
1011201022102210,
1011201020102210,
1011201020112211,
1011201020102210,
1022122212221000,//51
#GOGOEND
70870870,
8070008022221000,
70870870,
87083330,
#SCROLL 0.5
12,
1120,
10012000,
10102210,
10012000,
10012010,
10012010,
11201120,
#SCROLL 1
10201120,
10201120,
10201120,
11201122,//67
#SCROLL 1.5
#GOGOSTART
1000202210002022,
1000202210002022,
11221122,
1020102210201022,
#SCROLL 2
1020102210201022,
1020102210201022,
1022112211221000,
3340,//75
#SCROLL 1
#GOGOEND
1011201000112210,
1011201000112210,
1011201000221122,
1011201022101022,
1011201000112210,
1022102010221020,
1011201000112010,
0011201011201122,
1011221020102211,
1011221020102211,
1011221020102211,
1011221011102000,
1110201110102110,
1110201120112000,
1022102210221222,
1022102222221022,
1334,//92
#GOGOSTART
1011201020102210,
1011201020112211,
1011201020102210,
1011201022102210,
1011201020102210,
1011201020112211,
1011201020102210,
1222122210112000,
1011201021112010,
14443434,
1011201121102111,
14443434,
1011201021112010,
14443434,
1011201121102111,
1022102210112000,//108
#GOGOEND
41141141,
1040101022221000,
41141141,
14114440,//112
#GOGOSTART
1022102010221022,
1122112211221122,
1022102010221022,
1122112211221122,
1022102010221022,
1122112211221122,
1022102010221022,
1101221122111000,//120
#GOGOEND
41141141,
14114444,
#END

COURSE:Hard
LEVEL:6
BALLOON:5,5
#START
30030030,
03003030,//2
#GOGOSTART
1212,
11201120,
1212,
11201120,
2121,
22102210,
2121,
22121120,//10
#GOGOEND
11011011,
01101015,
000000000000000000000000000008000000000000000000,
11210220,
11011011,
01101015,
000000000000000008000000000000100000100000500000,
000000000000000000000008000000200000200000000000,
11011011,
01101015,
000000000000000000000000000008000000000000000000,
01121120,
11011011,
01101015,
000000000000000008000000000000100000100000000000,
500000000000000000000008000000200000200000000000,
10210120,
11210120,
10210120,
11211220,
10210120,
11210120,
10210120,
11211220,
10210120,
11210120,
11210120,
11211220,
11122210,
22211120,
1111,
11211120,
3334,//43
#GOGOSTART
11210212,
10101210,
10101210,
10101120,
11210212,
10101210,
10101210,
11101110,//51
#GOGOEND
30030030,
03070080,
30030030,
03003030,
1021,
1021,
10012010,
1121,
10012010,
10012010,
10012010,
1122,
12102010,
12102010,
12102010,
11221120,//67
#GOGOSTART
12101210,
12121120,
12121120,
11211220,
11211120,
11211120,
12121212,
3340,//75
#GOGOEND
10210120,
11210120,
10210120,
11211220,
10210120,
11210120,
10210120,
11211220,
10210120,
11210120,
11210120,
11211220,
11122210,
22211120,
1111,
11211120,
3334,//92
#GOGOSTART
11210212,
10101210,
10101210,
10101120,
11210212,
10101210,
10101210,
11101110,
11210112,
14443434,
11210120,
14443434,
11210112,
14443434,
11210120,
11101110,//108
#GOGOEND
30030030,
03070080,
30030030,
03003030,//112
#GOGOSTART
10201120,
34443434,
10201120,
34434343,
11201120,
34443434,
10201120,
11211120,//120
#GOGOEND
30030030,
03003030,
,
,
#END

COURSE:Normal
LEVEL:6
#START
30030030,
03004040,//2
#GOGOSTART
1112,
1210,
1111,
1210,
1111,
1210,
1111,
1210,//10
#GOGOEND
10101110,
11101010,
500000000000000000000000000008000000000000000000,
,
10101110,
10111011,
00110500,
000000000000000000000000000008000000000000000000,
10101110,
11101010,
500000000000000000000000000008000000000000000000,
22202220,
10111010,
11101011,
00110500,
000000000000000000000000000008000000000000000000,
10110110,
10110110,
10110110,
1120,
10110110,
10201120,
10110110,
1120,
20220220,
20220220,
20220220,
2220,
11011010,
22022020,
1111,
500000000000000000000000000000000008000000000000,
3334,//43
#GOGOSTART
11110110,
10110110,
10110110,
1110,
11110110,
10110110,
10110110,
500000000000000000000000000000000008000000000000,//51
#GOGOEND
30030030,
03000000,
30030030,
03004040,
12,
12,
1120,
1120,
12,
12,
1120,
1120,
1220,
1220,
1122,
1120,//67
#GOGOSTART
1120,
1120,
1122,
10201110,
11102000,
11102000,
11101110,
3340,//75
#GOGOEND
10110110,
10110110,
10110110,
1120,
10110110,
10201120,
10110110,
1120,
20220220,
20220220,
20220220,
2220,
11011010,
22022020,
1111,
500000000000000000000000000000000008000000000000,
3334,//92
#GOGOSTART
11110110,
10110110,
10110110,
1110,
11110110,
10110110,
10110110,
11101110,
11110111,
1444,
10110110,
1444,
11110111,
1444,
10110110,
11101110,//108
#GOGOEND
30030030,
03000000,
30030030,
03004040,//112
#GOGOSTART
11101110,
4444,
11101110,
4444,
11101110,
4444,
11101110,
500000000000000000000000000000000008000000000000,//120
#GOGOEND
30030030,
03004040,
,
,
#END

COURSE:Easy
LEVEL:4
#START
30030030,
03003030,//2
#GOGOSTART
11,
1110,
11,
1110,
22,
2220,
22,
2220,//10
#GOGOEND
11,
1015,
000000000000000000000000000008000000000000000000,
,
11,
1015,
000000000000000008000000000000500000000000000000,
000000000000000000000000000008000000000000000000,
11,
1015,
000000000000000000000000000008000000000000000000,
,
11,
1015,
000000000000000008000000000000500000000000000000,
000000000000000000000000000008000000000000000000,
1101,
1101,
1101,
11,
2202,
2202,
2202,
22,
1101,
1101,
1101,
11,
1110,
2220,
1111,
5,
000000000000000000000000000008000000000000000000,//43
#GOGOSTART
1101,
10000500,
000000000000000008000000000000500000000000000000,
000000000000000000000000000008000000000000000000,
2202,
20000500,
000000000000000008000000000000500000000000000000,
000000000000000000000000000008000000000000000000,//51
#GOGOEND
30030030,
03000000,
30030030,
03003030,
02,
02,
02,
2220,
02,
02,
02,
2220,
11,
1110,
11,
1110,//67
#GOGOSTART
1110,
1110,
1111,
2220,
1110,
1110,
1212,
3340,//75
#GOGOEND
1101,
1101,
1101,
11,
2202,
2202,
2202,
22,
1101,
1101,
1101,
11,
1110,
2220,
1111,
5,
000000000000000000000000000008000000000000000000,//92
#GOGOSTART
1101,
10000500,
000000000000000008000000000000500000000000000000,
000000000000000000000000000008000000000000000000,
2202,
20000500,
000000000000000008000000000000500000000000000000,
000000000000000000000000000008000000000000000000,
1101,
1444,
1101,
1444,
1101,
1444,
10100500,
000000000000000000000000000008000000000000000000,//108
#GOGOEND
30030030,
03000000,
30030030,
03003030,//112
#GOGOSTART
500000000000000000000000000008000000000000000000,
3333,
500000000000000000000000000008000000000000000000,
3333,
500000000000000000000000000008000000000000000000,
4444,
5,
000000000000000000000000000008000000000000000000,//120
#GOGOEND
30030030,
03003030,
,
,
#END
