//TJADB Project
TITLE:No Way Back
TITLEJA:No Way Back
SUBTITLE:--Go Shiina feat. Ben Franklin/GOD EATER
SUBTITLEJA:「GOD EATER」より
BPM:158
WAVE:No Way Back.ogg
OFFSET:-1.666
DEMOSTART:63.931

COURSE:Edit
LEVEL:9
BALLOON:20
SCOREINIT:400
SCOREDIFF:100
#START
3202,
0202,
0202,
0000200000002022,
2202,
0202,
0000200000002222,
2,
1111,
10101014,
1111,
10101414,
10101014,
10101014,
1111,
1000200011111111,
1120102211201020,
1120102011201020,
1120102211201020,
1120102211201040,
1120102211201020,
1120102211201020,
1120102211201020,
4000101011111111,
1011102110111021,
1011102110111021,
1011102110111021,
1011101122104011,
1011102110111021,
1011102110111021,
1021102110211021,
1021102110111110,
30211211,
10211434,
10211211,
10211434,
31221221,
11221212,
11221221,
11221212,
500000000000000000000000000000000008000000000000,
#GOGOSTART
1021102110211021,
1021102110211021,
1021201120211021,
1021102110211021,
1021102110211021,
1021102110211021,
1021201120211021,
1021102110211021,
#GOGOEND
10130122,
10140122,
10130122,
10140121,
10130122,
10140122,
10130122,
10140121,
11221212,
,
#GOGOSTART
1011101110111010,
20020201,
2011102010002010,
0011200000100020,
500000000000000000000000000000000008000000000000,
1221122112112112,
202020101000200200100100202020101000200200100100,
221110211110111110111110,
1122112211221122,
100100200200100100200200100100102020100010001000,
102020102020112200102020,
1000002210000000,
1012201022112211,
100100200200100100200200100100000200101010202020,
101010202020101010202000500000000000000008000000,
7,
#GOGOEND
8,
,
,
,
44,
40040040,
40004004,
0000400040111111,
10140112,
10140112,
10140112,
10230211,
30140112,
30140112,
30140112,
3000203011111111,
,
,
2002,
20000022,
20022000,
20022000,
4,
#END

COURSE:Oni
LEVEL:8
BALLOON:13,26,99
SCOREINIT:460
SCOREDIFF:90
#START
4,
10000022,
1,
1022,
1002,
1012,
500000000000000000000000000000000000000000000008,
,
1020112010201120,
1020112010201122,
1020112010201120,
1022102210221022,
1020112010201120,
1020112010201122,
100000000000000000000000500000000000000000000008,
00003344,
1110201110201120,
1111201111201122,
1110201110201120,
1111201111203040,
1110201110201120,
1111201111201122,
1110201110201120,
1000202211221121,
2022102010221020,
1022102211221022,
1022102010221020,
1022102211204000,
1022102010221020,
1022102211221022,
100000200200100000200000500000000000000000000008,
,
40120121,
1000102220102210,
10122121,
1000102220102210,
21122121,
2010102220102210,
21122121,
2010101120112210,
4,
#GOGOSTART
1011202212111022,
1011202212112022,
1011202212111022,
1011201120112000,
1011202212111022,
1011202212112022,
1011202212111022,
1011201120112000,
#GOGOEND
4000100020002011,
1000101020002011,
1000100020002011,
10120211,
4000100020002011,
1000101020002011,
1000101020102011,
12122300,
4,
,
#GOGOSTART
1011101110111010,
1022102210221010,
1011101110111010,
1022102210221010,
7008,
1211121112111000,
1121112111211000,
1112111211121000,
1120102111201120,
1120102111201120,
7,
08,
1022112210221022,
1222102211201112,
1112121210000000,
500000000000000000000000000000000008000000000000,
#GOGOEND
11,
10020020,
10001002,
0212,
12,
10020020,
10001002,
0000200010111111,
2000100020002011,
1000101020002011,
1000100020002011,
10120212,
1000100020002011,
1000101020002011,
1000101020102011,
1020102011221212,
#BARLINEOFF
,
00000007,
,
,
,
,
,
0000000800000000,
#END

COURSE:Hard
LEVEL:7
BALLOON:9,9,9,30,80
SCOREINIT:600
SCOREDIFF:140
#START
4,
10000022,
1,
1022,
1002,
1012,
500000000000000000000000000000000000000000000008,
,
1111,
10101011,
1111,
3434,
1111,
10101011,
200000000000000000000000500000000000000000000008,
,
1110101110101000,
1110101110100010,
1110101110101000,
500000000000000000000000000000000008000000000000,
1110101110101000,
1110101110100010,
1110101110101000,
500000000000000000000000000000000008000000000000,
1010100010111000,
2020200020222000,
1010100010111000,
3434,
1010100010111000,
2020200020222000,
500000000000000000000000000000000000000000000008,
,
40120121,
10120121,
10122121,
10120121,
10122121,
12212121,
21121121,
21112000,
4,
#GOGOSTART
1011100010111000,
1011101010111000,
1011100010111000,
1011101110111000,
1011100010111000,
1011101010111000,
1011100010111000,
1011101110111000,
#GOGOEND
10102021,
10112021,
10102021,
10120121,
10102021,
10112021,
10120121,
12122300,
4,
,
#GOGOSTART
10210112,
10210121,
1011101010001010,
0011100000100010,
4,
7008,
7008,
7008,
9,
,
,
8,
1011101110111000,
2022202220222000,
1011101110111000,
500000000000000000000000000000000008000000000000,
#GOGOEND
11,
10020020,
10001002,
0212,
11,
10020020,
10001004,
0433,
10102021,
10112021,
10102021,
10120212,
10102021,
10112021,
10120212,
12122300,
#BARLINEOFF
,
00000007,
,
,
,
,
,
08,
#END

COURSE:Normal
LEVEL:6
BALLOON:7,7,7,23,45
SCOREINIT:940
SCOREDIFF:273
#START
4,
1,
2,
11,
1,
2,
500000000000000000000000000000000000000000000008,
,
12,
1120,
12,
33,
12,
1120,
500000000000000000000000000000000000000000000008,
,
1110,
1110,
1111,
500000000000000000000000000000000008000000000000,
1110,
1110,
1111,
500000000000000000000000000000000008000000000000,
1122,
1120,
1122,
33,
1122,
1122,
500000000000000000000000000000000000000000000008,
,
1111,
3,
1111,
4,
10101110,
1,
10101110,
1,
4,
#GOGOSTART
10101110,
10101110,
11101110,
34,
10101110,
10101110,
11101110,
500000000000000000000000000000000008000000000000,
#GOGOEND
13,
14,
13,
1140,
13,
14,
13,
1140,
4,
,
#GOGOSTART
5,
000000000000000000000000000008000000000000000000,
1111,
1111,
4,
7008,
7008,
7008,
9,
,
,
8,
1111,
1111,
2222,
500000000000000000000000000000000008000000000000,
#GOGOEND
12,
1,
10002005,
000000000000000000000008000000000000000000000000,
12,
1,
10002005,
000000000000000000000000000000000008000000000000,
13,
13,
13,
14,
13,
13,
10003033,
04040400,
#BARLINEOFF
,
00000007,
,
,
,
,
,
08,
#END

COURSE:Easy
LEVEL:4
BALLOON:5,5,5,20,40
SCOREINIT:690
SCOREDIFF:205
#START
4,
1,
2,
11,
1,
2,
500000000000000000000000000000000000000000000008,
,
11,
1110,
11,
33,
11,
1110,
500000000000000000000000000000000000000000000008,
,
11,
11,
12,
500000000000000000000000000008000000000000000000,
11,
11,
12,
500000000000000000000000000008000000000000000000,
1110,
2220,
1110,
33,
1110,
2220,
500000000000000000000000000000000000000000000008,
,
1110,
3,
1110,
4,
1011,
1,
1011,
1,
4,
#GOGOSTART
1110,
10111000,
1111,
500000000000000000000000000008000000000000000000,
1110,
10111000,
1111,
500000000000000000000000000008000000000000000000,
#GOGOEND
03,
03,
03,
04,
03,
03,
03,
04,
4,
,
#GOGOSTART
5,
000000000000000000000000000008000000000000000000,
11101000,
11101000,
4,
7008,
7008,
7008,
9,
,
,
8,
10101110,
10101110,
1111,
500000000000000000000000000008000000000000000000,
#GOGOEND
11,
1,
10001005,
000000000000000000000008000000000000000000000000,
11,
1,
10001005,
000000000000000000000000000000000008000000000000,
03,
03,
03,
04,
03,
03,
03,
04,
#BARLINEOFF
,
00000007,
,
,
,
,
,
00080000,
#END
