//TJADB Project
TITLE:Gomennasai no Kissing You
TITLEJA:ごめんなさいのKissing You
SUBTITLE:--E-girls
BPM:143
WAVE:Gomennasai no Kissing You.ogg
OFFSET:-1.909
DEMOSTART:48.884

COURSE:Oni
LEVEL:7
SCOREINIT:780
SCOREDIFF:190
#START
0202,
0202,
2220222050000000,
000000000000000000000000000000000008000000000000,
10211021,
01202020,
10211021,
01202020,
10211021,
01202025,
000000000000000000000000000000000000000008000000,
0020202011102000,
1011201010002010,
0010201011102020,
1011201010002010,
0020102011202000,
1011201010002010,
0010201010222050,
000000000000000000000000000000000000000000000008,
0010201110102000,
11210201,
1020201110200030,
40340340,
34034040,
11210201,
1020201110200040,
30430430,
4030003011102000,//28
#GOGOSTART
1011201011202011,
2010201110222000,
1011201022102011,
2010201110222000,
3000201011202000,
3000201110222000,
1102201011022010,
20033444,
1011201022202011,
2010201120222000,
1011201022202011,
2010202220112000,
30040000,
30040000,
1102201011022010,
20033444,//44
#GOGOEND
10211020,
11211020,
1110201110102000,
1010222011102000,
10211020,
11211020,
1110201010002020,
1110202000005000,
000000000000000000000000000000000008000000000000,
00000033,
#END

COURSE:Hard
LEVEL:6
BALLOON:25
#START
,
,
,
,
10011001,
01102020,
10011001,
01102020,
10011001,
01102025,
000000000000000000000000000000000000000008000000,
02221110,
10211021,
0010201011102000,
10211021,
0010201022202000,
10211021,
0010201010222050,
000000000000000000000000000000000000000008000000,
0030001110000000,
11220201,
12211203,
40340340,
34034040,
11220201,
12211204,
30430430,
43033440,//28
#GOGOSTART
1010201011102010,
000000100000200000500000000000000008000000000000,
1010202022202010,
01212020,
3000201011102000,
30211020,
10201021,
20033444,
1010202011102010,
000000100000200000500000000000000008000000000000,
1010202022202010,
01212020,
30040000,
30040000,
10201021,
20033444,//44
#GOGOEND
10211020,
10211020,
500000000000000000000000000008000000200000000000,
1010202011102000,
10211020,
10211020,
500000000000000000000008000000000000200000200000,
20020090,
,
09,
8,
,
#END

COURSE:Normal
LEVEL:5
BALLOON:14
#START
,
,
,
,
11,
1122,
11,
1122,
11,
2225,
000000000000000000000000000000000000000008000000,
,
1110,
1122,
1110,
2222,
1110,
1125,
000000000000000000000000000000000000000008000000,
03030000,
10110100,
10110103,
30330330,
33033030,
10110100,
10110103,
30330330,
33003030,//28
#GOGOSTART
11101011,
000000100000000000500000000000000008000000000000,
11101011,
02202000,
30030030,
40040000,
1212,
10033440,
11101011,
000000100000000000500000000000000008000000000000,
11101011,
02202000,
30040000,
30040000,
1212,
10033440,//44
#GOGOEND
10010020,
10010020,
500000000000000000000000000000000008000000000000,
10010000,
10010020,
10010020,
500000000000000000000000000000000008000000000000,
10010090,
,
09,
8,
,
#END

COURSE:Easy
LEVEL:4
BALLOON:10
#START
,
,
,
,
11,
1110,
11,
1110,
11,
1115,
000000000000000000000000000000000000000008000000,
,
12,
1111,
12,
1111,
12,
1115,
000000000000000000000000000000000008000000000000,
03030000,
10100100,
10100106,
,
000008000000000000000000300000000000300000000000,
10100100,
10100106,
,
000008000000000000000000300000000000300000000000,//28
#GOGOSTART
10101001,
000000100000000000500000000000000008000000000000,
10101001,
0111,
30030000,
30030000,
1111,
10033330,
10101001,
000000100000000000500000000000000008000000000000,
10101001,
0111,
30030000,
30030000,
1111,
10033330,//44
#GOGOEND
11,
11,
500000000000000000000000000008000000000000000000,
11,
11,
11,
500000000000000000000000000008000000000000000000,
1019,
,
09,
8,
,
#END
