//TJADB Project
TITLE:Coffee no Aji to
TITLEJA:珈琲の味と
SUBTITLE:--Harunaba feat. GUMI
SUBTITLEJA:はるなば
BPM:185
WAVE:Coffee no Aji to.ogg
OFFSET:-1.613
DEMOSTART:9.400

COURSE:Oni
LEVEL:9
SCOREINIT:350
SCOREDIFF:85
#START
1012201010120210,
1011221020102022,
#GOGOSTART
2002002212102022,
2002002212101122,
2002002212102022,
2002002212102000,
#GOGOEND
1021021011102010,
1021021012102010,
1021021011102010,
1021021012102020,
1021021020112010,
1021021020122010,
1021021020112010,
1021021020122020,
1012201010202000,
3344,
1012201010120210,
1011221010202020,
1000100010021020,
1000100010221020,
1000100010021020,
1020202020112022,
1012201010120210,
1011221020102010,
1012201010120210,
1011221020102022,
1000201000102011,
1010201210102010,
1000201000102011,
1010201210102010,
2011102011102011,
1020111020111020,
1000201210102010,
1022112011112022,
1002201010011020,
1002102010221022,
1002201010012210,
1002102010221022,
1002201010012210,
1002102010221022,
21121121,
40344040,
#GOGOSTART
1010201210102011,
1110201210201120,
1010201210102011,
1110201210202222,
1010202210102022,
1010202210201220,
1010202210102011,
1022120212112022,
1010201210102011,
1110201210201120,
1010201210102011,
1110201210202222,
1010202210102022,
1010201212112022,
1022121022121022,
1222122212221222,
1010201212112022,
1021021020102011,
1010201210102011,
1010201210102000,
#GOGOEND
10010020,
20020220,
100000000100000000202020,
10010120,
21121121,
2102102010102010,
2102202102202222,
1020200210122220,
#GOGOSTART
1010201210102011,
2210201210201120,
1010201210102011,
2210201210202222,
1010202210102022,
1010202212112022,
1022121022121022,
1222122212221222,
#GOGOEND
1010201212112010,
1021021020102010,
3344,
3022102211221222,
1012201010120210,
1011221020102010,
1012201010120210,
1011221020102022,
#GOGOSTART
2012012012112022,
2012012012112222,
2012012012112022,
2012012012112010,
2012012212112010,
2012012212112222,
1012201010120210,
1022121030004000,
#GOGOEND
3,
#END

COURSE:Hard
LEVEL:6
SCOREINIT:540
SCOREDIFF:135
#START
2011100020111000,
2011101010002000,
#GOGOSTART
2002002010000000,
2002002010002000,
2002002010000000,
2002002010002000,
#GOGOEND
10201102,
01020100,
10201102,
01020200,
01101102,
01020201,
00101102,
01020205,
,
000000000000000000000008000000000000000000000000,
2011100020111000,
2011101010002000,
10101012,
10101212,
1112,
12222020,
10211021,
10211020,
10211021,
1000201010222000,
10210020,
1000200022202000,
10210020,
1000200022202000,
20120120,
12012010,
10210020,
10210225,
000000000000000000000008000000000000000000000000,
1000200010001011,
10210020,
1000200010001011,
10210020,
1000200010002022,
20120125,
000000000000000000000000000000000008000000000000,//42
#GOGOSTART
10200120,
1000201000202011,
10200120,
1000201000202011,
1000201110002011,
1115,
000000000000000000000000000000000000000000000008,
,
10200120,
1000201000202011,
10200120,
1000201000202011,
1000201110002011,
1340,
6,
000000000000000000000000000000000008000000000000,
10200120,
1011011020002000,
3344,
3344,//62
#GOGOEND
3,
20020020,
10000022,
10010220,
10011000,
3346,
000000000000000000000000000000000000000000000008,
,//70
#GOGOSTART
3000200000102011,
1000201000202011,
1000200000102011,
1000201000202011,
1000201110002011,
1340,
6,
000000000000000000000000000000000008000000000000,//78
#GOGOEND
10200120,
1011011020002000,
3344,
3434,
4011100020111000,
2011101010002000,
2011102020111020,
2011102020002000,//86
#GOGOSTART
2002002010000000,
2002002010002222,
2000002220000022,
20021010,
2002002010000000,
2002002010002222,
2000002220000022,
2344,//94
#GOGOEND
3,//430combo
,
#END

COURSE:Normal
LEVEL:5
BALLOON:14,6,4,4,4
#START
10011001,
10011010,//2
#GOGOSTART
500000000000000000000000000008000000000000000000,
500000000000000000000000000008000000000000000000,
600000000000000000000000000008000000000000000000,
600000000000000000000000000008000000000000000000,//6
#GOGOEND
10101101,
01010200,
10101101,
01010200,
01101101,
01020200,
00101101,
01020207,
,
8,
,
,
1110,
11102020,
1110,
22202020,
10011001,
10011020,
10011001,
10011020,
1120,
10102011,
1120,
10102011,
5,
000000000000000000000008000000000000000000000000,
10102011,
1120,
10012011,
10102001,
10012011,
10102001,
10012011,
1120,
7,
8,//42
#GOGOSTART
10102011,
10110201,
10102011,
10110201,
1212,
1125,
000000000000000000000000000000000000000000000008,
,
10102011,
10110201,
10102011,
10110200,
3434,
3340,
6,
000000000000000000000000000008000000000000000000,
12,
500000000000000000000008000000000000000000000000,
3344,
3344,//62
#GOGOEND
3,
10010010,
1,
10010010,
10011001,
1125,
000000000000000000000000000000000000000000000008,
,//70
#GOGOSTART
10201120,
10220201,
10201120,
10220200,
3434,
3340,
6,
000000000000000000000008000000000000000000000000,//78
#GOGOEND
12,
500000000000000000000008000000000000000000000000,
3344,
3344,
6,
000000000000000000000008000000000000000000000000,
20022002,
20022020,//86
#GOGOSTART
500000000000000000000000000008000000000000000000,
500000000000000000000000000008000000000000000000,
600000000000000000000000000008000000000000000000,
600000000000000000000000000008000000000000000000,
7008,
7008,
7008,
3344,//94
#GOGOEND
3,
,
#END

COURSE:Easy
LEVEL:4
BALLOON:5,3,3,3
#START
11,
1011,//2
#GOGOSTART
500000000000000000000000000008000000000000000000,
500000000000000000000000000008000000000000000000,
600000000000000000000000000008000000000000000000,
600000000000000000000000000008000000000000000000,//6
#GOGOEND
1110,
11,
1110,
11,
2220,
22,
2220,
20002005,
,
000000000000000000000000000000000000000000000008,
,
,
1110,
12,
1110,
12,
11,
1011,
22,
2022,
12,
1022,
12,
1022,
5,
000000000000000000000008000000000000000000000000,
12,
1122,
500000000000000000000000000008000000000000000000,
1022,
500000000000000000000000000008000000000000000000,
1022,
500000000000000000000008000000000000000000000000,
1022,
7,
8,//42
#GOGOSTART
1110,
1120,
1110,
1120,
1212,
1125,
000000000000000000000000000000000000000000000008,
,
1110,
1120,
1110,
1120,
1212,
1120,
6,
000000000000000000000000000008000000000000000000,
12,
500000000000000000000008000000000000000000000000,
1122,
1122,//62
#GOGOEND
1,
1,
1,
1,
11,
1125,
000000000000000000000000000000000000000000000008,
,//70
#GOGOSTART
1120,
1210,
1120,
1210,
3434,
3340,
6,
000000000000000000000000000008000000000000000000,//78
#GOGOEND
12,
500000000000000000000008000000000000000000000000,
3344,
3344,
600000000000000000000000000000000000000000000008,
,
11,
1011,//86
#GOGOSTART
500000000000000000000000000008000000000000000000,
500000000000000000000000000008000000000000000000,
600000000000000000000000000008000000000000000000,
600000000000000000000000000008000000000000000000,
7008,
7008,
7008,
3344,//94
#GOGOEND
3,//166combo
,
#END
