//TJADB Project
TITLE:Dokidoki Koi no Yokan⁉
TITLEJA:ドキドキ恋の予感!?
SUBTITLE:--Noriyuki feat. GUMI
BPM:165
WAVE:Dokidoki Koi no Yokan!.ogg
OFFSET:-3.381
DEMOSTART:67.381

COURSE:Oni
LEVEL:7
BALLOON:9
SCOREINIT:600
SCOREDIFF:160
#START
30220222,
00000221,
10220222,
0000000022111010,
0022202000111010,
0022202010221010,
0022202000111030,
04400336,
,
0000000000000000000000000000000800000000000000000000000000000000,//10
#GOGOSTART
30300121,
0020201110202010,
10110121,
0020201110202010,
0011201020102010,
0011201020102010,
0011201000112030,
00030000,//18
#GOGOEND
1020102010221020,
1020102010222010,
1020102010221020,
1020102010222010,
10221220,
10221220,
1000000000000000200000002000000050000000000000000000000800000000,
2211221110404000,
1020102010221020,
1020102010222010,
1020102010221020,
1020102010222010,
10221220,
10221220,
5000000000000000000000000000000800000000200000002000000050000000,
0000000000000000000000080000000000000000400000004000000010000000,
10211201,
0011200000202010,
10211201,
0011201020102000,
10211201,
0011200000000011,
1000222000000011,
1000222000102020,
70000804,
04040000,//44
#GOGOSTART
3011101110202010,
0011201110202010,
1011101110202010,
0011200022112211,
1022202010222020,
1022102010221020,
1011200000303030,
0011200011221122,
1011101110202010,
0011201110202010,
1011101110202010,
0011200022111010,
0022202000111010,
0022202010221010,
0022202000111030,
04400336,
,
0000000000000000000000000000000800000000000000000000000000000000,//62
#GOGOEND
30300121,
0020201110202010,
10110121,
0020201110202010,
0011201020102010,
0011201020102010,
0011201000112030,
00030000,
33330403,
00040000,
#END

COURSE:Hard
LEVEL:5
BALLOON:7
SCOREINIT:650
SCOREDIFF:188
#START
30220222,
,
30220222,
00000111,
02220111,
02221011,
02220333,
04400336,
,
0000000000000000000000000000000800000000000000000000000000000000,//10
#GOGOSTART
10100111,
00200221,
10110111,
00200221,
01112011,
01112011,
01120223,
00030000,//18
#GOGOEND
11110220,
11110220,
11110220,
11110220,
10201120,
10201120,
10015000,
0000000000000008000000000000000000000000400000004000000000000000,
11220220,
11220220,
11220220,
11220220,
10201120,
10201120,
5,
0000000000000008000000000000000000000000100000001000000010000000,
10220101,
00400111,
10220101,
00200111,
10220101,
0000400000000011,
1000222000000011,
1000222000101010,
70000804,
04040000,//44
#GOGOSTART
10110121,
0022200000202010,
10110121,
0022200000202010,
10022020,
10022020,
10000115,
0000000000000000000000080000000000000000000000000000000000000000,
10110121,
0022200000202010,
10110121,
0022200000101010,
02220111,
02221011,
02220333,
04400336,
,
0000000000000000000000000000000800000000000000000000000000000000,//62
#GOGOEND
10100111,
00200221,
10110111,
00200221,
01112011,
01112011,
01120223,
00030000,
33330403,
00040000,
,
,
#END

COURSE:Normal
LEVEL:4
SCOREINIT:760
SCOREDIFF:243
#START
30000202,
,
30000202,
00000001,
01102001,
01102001,
01102003,
03300000,
6,
0000000000000000000000000000000800000000000000000000000000000000,//10
#GOGOSTART
10100101,
00200220,
10100101,
00202001,
01102001,
01102001,
01102003,
00030000,//18
#GOGOEND
10100220,
10100220,
10100220,
10100220,
1122,
1122,
10050000,
0000000000000008000000000000000000000000000000000000000000000000,
10200220,
10200220,
10200220,
10200220,
1212,
1212,
5,
0000000000000008000000000000000000000000000000001000000000000000,
10200101,
0201,
10200101,
0201,
10200101,
0200,
3,
3003,
6000000000000000000000000000000800000000000000000000000040000000,
04040000,//44
#GOGOSTART
10110115,
0000000000000000000000000000000800000000000000000000000000000000,
10110115,
0000000000000000000000000000000800000000000000000000000000000000,
10022020,
10022020,
10000115,
0000000000000000000000080000000000000000000000000000000000000000,
10110115,
0000000000000000000000000000000800000000000000000000000000000000,
10110115,
0000000000000000000000000000000800000000000000000000000010000000,
01102001,
01102001,
01102003,
03300000,
6,
0000000000000000000000000000000800000000000000000000000000000000,//62
#GOGOEND
10100101,
00200220,
10100101,
00202001,
01102001,
01102001,
01102003,
00030000,
33330303,
00040000,
,
,
#END

COURSE:Easy
LEVEL:3
SCOREINIT:620
SCOREDIFF:235
#START
30000101,
,
30000101,
00000001,
00101001,
00101001,
00101003,
03300000,
6,
0000000000000000000000000000000800000000000000000000000000000000,//10
#GOGOSTART
10100101,
,
10100101,
00000001,
00101001,
00101001,
00101004,
00040000,//18
#GOGOEND
1110,
2220,
1110,
2220,
11,
22,
10050000,
0000000000000008000000000000000000000000000000000000000000000000,
1110,
2220,
1110,
2220,
11,
22,
5,
0000000000000008000000000000000000000000000000001000000000000000,
10000101,
0001,
10000101,
0001,
10000101,
,
3,
3003,
6000000000000000000000000000000800000000000000000000000040000000,
04040000,//44
#GOGOSTART
10101005,
0000000000000000000000000000000800000000000000000000000000000000,
10101005,
0000000000000000000000000000000800000000000000000000000000000000,
12,
12,
10000115,
0000000000000000000000080000000000000000000000000000000000000000,
10101005,
0000000000000000000000000000000800000000000000000000000000000000,
10101005,
0000000000000000000000000000000800000000000000000000000010000000,
00101001,
00101001,
00101003,
03300000,
6,
0000000000000000000000000000000800000000000000000000000000000000,//62
#GOGOEND
10100101,
,
10100101,
00000001,
00101001,
00101001,
00101003,
00030000,
33330303,
00040000,
,
,
#END
