//TJADB Project
TITLE:Ouka Ranman
TITLEJA:桜花爛漫
SUBTITLE:--Kakumi Nishigomi
BPM:170
WAVE:Ouka Ranman.ogg
OFFSET:-1.536
DEMOSTART:14.586

COURSE:Oni
LEVEL:8
BALLOON:10,10
SCOREINIT:410
SCOREDIFF:105
#START
#MEASURE 5/4
600008000000000000000000000000000000000000000000000000000000,//1
#BRANCHSTART r,1,2
#N
#MEASURE 4/4
#GOGOSTART
3,
0022201010102000,
3,
2020111020004000,
3000000000000022,
21021120,
21212121,
2022201010004000,//N9
#GOGOEND
0011102010221020,
1011102010201110,
0022102010201110,
1220102010202220,
0011102012201020,
1011102010201110,
0022102011011020,
12122222,
1000300022202010,
0011102010201020,
1000300022202010,
0011002200110022,
0011102012201020,
1011102010201020,
21212121,
2012102010000000,
11221212,
21121212,
1012101020101010,
2020102010102022,
2010102010221020,
2010112010201020,
1012201020102020,
1020102210202020,
1012102011102010,
2020201110201020,
10112011,
21013030,
1011201020111010,
200000200000000200100000500000000000000008000000,
0011102010221020,
1011102010201110,
0022102011102010,
2012102010000000,
11012011,
02112100,
11012021,
12012121,
11012011,
01222222,
11110011,
1010000022222000,
1022201020201022,
2010201021122000,
1022201020201020,
2011101011202010,
1120201120201120,
2011202011102010,
1022201022201022,
2110201010004000,
2222102222102222,
1022221011221010,
2011112011112011,
1120101011112020,
0011122011122010,
1021001021001022,
2010210010210010,
122211221221,
700000000000000000800222,
2,
03000000,
0022201020102000,
03000000,
2020202020011010,
0030001000222020,
01012120,
21212121,
2022201010003000,//N77
#GOGOSTART
0011102010221020,
1011102010201110,
0022102010201110,
1220102010202220,
0011102012201020,
1011102010201110,
0022102011011020,
12122222,
1000300022202010,
0011102010201020,
1000300022202010,
0011002200110022,
0011102012201020,
1011102010222022,
1133,
3022201030000000,//N93
#E
#MEASURE 4/4
#GOGOSTART
1022201010222010,
1020111010104000,
1022201010222010,
12123040,
1022201010222010,
1022101010104000,
1022102010221020,
1022202010004000,//E9
#GOGOEND
1011201020222010,
1011202010103040,
1022102010221020,
2220101020104020,
1011201020222010,
1022102010103040,
1022102021012010,
1022101010404040,
1000102010221020,
1022102110221020,
1000112020221010,
0022102010221020,
1010202022202010,
1022102010104022,
1333,
4022101040000000,
500000000000000000000000000000000008000000100000,
1011201000104020,
2022101020221010,
1011101010104011,
2000111010222020,
1020101110104020,
2022102210201110,
1020111010204022,
100000600000000000000000000000000008000000100000,
2011201110102222,
1000202010222222,
1022102210221010,
1111202022101020,
1022202010101010,
1011201020222010,
1020102022103040,
1022102022202010,
2022102030000000,
11112011,
100000200000200000100000500000000000000008000000,
11112021,
2022100021102010,
11112011,
1020112010201120,
2120101020001020,
7008,
1022201020201020,
2010202021112000,
1022201020201020,
2010202011104010,
1021201021201021,
2010212010201020,
1012102021201020,
1120221020004000,
1021201021201021,
2010221020104000,
2012102012102012,
12112140,
2022112022112010,
2120002120002120,
1021201021201020,
022112212122,
5,
000000000000000000000000000000000000000008000000,
0022201000222010,
0022101010202000,
0022201000222010,
22121030,
0022201000222010,
0022101010104000,
1020102010221020,
1022202010004000,//E77
#GOGOSTART
1011201020222010,
1011202010103040,
1022102010221020,
2220101020104020,
1011201022202010,
1022102010103040,
1022102021012010,
1022101010404040,
1000102010221020,
1022102110221020,
1000112020221010,
0022102010221020,
1010202022202010,
1022102010222022,
1333,
2022101040000000,//E93
#M
#MEASURE 4/4
#GOGOSTART
0022202000222010,
0020201022104000,
0022202000222010,
200000200000100000200000500008000000400000000000,
0022202000222010,
0020201022104000,
1020102011201120,
2022201010004000,//M9
#GOGOEND
0010202020222020,
1020202010211020,
0020112000201120,
2220102010202210,
0010202022202020,
1022202010111020,
0020112022021020,
2210102010404040,
1000102022202120,
0021202120212020,
1000222021201210,
0022102010112010,
0010202022202020,
1022202010111020,
3333,
2022111040000000,
500000000000000000000000000000000008000000100000,
1120202000102000,
0022101022101011,
1020001000112000,
000000000000500000000000000000000008000000100000,
2211101000112000,
0011101110202110,
1020211010222000,
000000500000000000000000000000000008000000100100,
2020101011102210,
1000202010002120,
0010002012121000,
1111212020201120,
100200100000000000500000000000000000000008000000,
0010202020222020,
1020202010211020,
0011102022101021,
2022212030000000,
1011202000001011,
2020102011212222,
1011202000002010,
100222000000222000000222,
1011202000001011,
2020102011201020,
2220102000002010,
500000000000000000000000000000000008000000000000,
1120201120201120,
2011202011221000,
2210102210102210,
1022101011202010,
1110201110201110,
2011102010102120,
1022102000201020,
1120211020004000,
0022102022102022,
1020201020202210,
0022101022101022,
1020201011202120,
0022122011222010,
22022022,
04404404,
022221222112,
1111111111111122,
500000000000000000000000000000000000000008000000,
0022201000221010,
0020201011104000,
0022101000211010,
2020112010004000,
0021101000121010,
0020201011104000,
1020102011201120,
2022122010004000,//M77
#GOGOSTART
0010202020222020,
1020202010111020,
0020212000202120,
2220102010202210,
0011202022202020,
1022102010111020,
0020112022021020,
2210102010404040,
1000102022101120,
0021202120212020,
1000112020201120,
0022112010112210,
0010202022202020,
1022202010111120,
3333,
2122112040000000,//M93
#BRANCHEND
#GOGOEND
#END

COURSE:Hard
LEVEL:7
BALLOON:12,8,12
SCOREINIT:410
SCOREDIFF:100
#START
#MEASURE 5/4
,//1
#MEASURE 4/4
#GOGOSTART
1022201000222010,
02101040,
1022201000222010,
10111030,
1022201000222010,
02101040,
12121210,
1022202010003000,//9
#GOGOEND
10110222,
11221011,
02120212,
22112040,
01102211,
22112030,
0020200022022000,
11221444,
1000102010222020,
04040404,
1000102010222020,
03030303,
0010100022202020,
11221040,
3333,
3011101040000000,
500000000000000000000000000000000008000000000000,
11220220,
1000202000222020,
11010110,
000000000000500000000000000000000008000000000000,
11220220,
0011101110201000,
12101210,
000000600000000000000000000000000008000000000000,
11111111,
10221022,
12121210,
9009,
8,
10110222,
11221030,
0010100022202020,
1011101040000000,
11120011,
12000000,
11120021,
12001010,
11120011,
12000000,
11120012,
7008,
1011101020100010,
10112040,
1011101020100010,
1000101011104000,
11201201,
20221140,
1011101000202000,
2220202020004000,
1011101011101011,
11101030,
2022202022202022,
22202040,
1011100011101000,
22022022,
02202202,
000000500000000000000000000000000000000008000000,
9009,
8,
0022201000222010,
02211240,
0022201000222010,
21211030,
0022201000222010,
02121220,
12121210,
1022202010004000,//77
#GOGOSTART
1000101000222020,
11221030,
02120212,
2220201020004000,
0010100022202020,
1022202010003000,
0010101022022000,
11221444,
1000102010222020,
04040404,
1000111020201010,
03030303,
0010101022202020,
1010202010111011,
1333,
3011101030000000,//93
#GOGOEND
,
,
#END

COURSE:Normal
LEVEL:6
BALLOON:8,6,8
#START
#MEASURE 5/4
,//1
#MEASURE 4/4
#GOGOSTART
11,
1113,
11,
1114,
11,
1113,
1212,
10222030,//9
#GOGOEND
10110110,
1110,
10110110,
1110,
20220220,
2220,
20220220,
2220,
10101110,
03030300,
10101110,
04040400,
10110110,
1114,
3333,
34,
500000000000000000000000000000000008000000000000,
10110110,
20220220,
20220220,
000000000000500000000000000000000008000000000000,
10110110,
02022020,
2222,
000000600000000000000000000000000008000000000000,
10101110,
10222022,
2222,
9009,
8,
10110110,
1110,
10110110,
3340,
11110011,
11000000,
22220022,
22000000,
11110011,
11000000,
22220022,
7008,
10010010,
01001030,
20020020,
02002040,
10010010,
01001040,
10010010,
20222040,
10110110,
11011030,
20220220,
22022040,
10110110,
22022022,
02202202,
000000500000000000000000000000000000000008000000,
9009,
8,
01000100,
01010110,
01000100,
10111000,
01000100,
01010110,
1212,
10222030,//77
#GOGOSTART
10110110,
1110,
10110110,
1110,
20220220,
2220,
20220220,
2220,
10101110,
03030300,
10101110,
04040400,
10110110,
1114,
3333,
34,//93
#GOGOEND
,
,
#END

COURSE:Easy
LEVEL:4
BALLOON:6,5,6
#START
#MEASURE 5/4
,//1
#MEASURE 4/4
#GOGOSTART
11,
1011,
11,
1110,
11,
1011,
1111,
1013,//9
#GOGOEND
10110010,
1110,
11,
1110,
10110010,
1110,
22,
2220,
1111,
000000500000000000000000000008000000000000000000,
1111,
000000600000000000000000000008000000000000000000,
10110010,
1110,
3333,
34,
500000000000000000000000000008000000000000000000,
1110,
20220020,
2220,
100000000000500000000000000008000000000000000000,
1111,
000000500000000000000000000008000000000000000000,
2222,
000000600000000000000000000008000000000000000000,
1111,
1212,
1110,
9009,
8,
10110010,
1110,
11,
3330,
10110010,
11000000,
20220020,
22000000,
10110010,
11000000,
20220020,
7008,
10010010,
01001000,
20020020,
02002000,
10010010,
01001000,
20020020,
500000000000000000000008000000000000000000000000,
10010010,
01001000,
20020020,
02002000,
10010000,
20020020,
02002002,
000000500000000000000000000000000000000008000000,
9009,
8,
01000100,
01010100,
01000100,
500000000000000000000008000000000000000000000000,
01000100,
01010100,
1111,
1013,//77
#GOGOSTART
10110010,
1110,
11,
1110,
20220020,
2220,
22,
2220,
1111,
000000500000000000000000000008000000000000000000,
1111,
000000600000000000000000000008000000000000000000,
10110010,
1110,
3333,
33,//93
#GOGOEND
,
,
#END
