//TJADB Project
TITLE:Haru Uta
TITLEJA:ハルウタ
SUBTITLE:--Ikimonogatari/Detective Conan: The Eleventh Striker
SUBTITLEJA:「名探偵コナン 11人目のストライカー」より
BPM:103
WAVE:Haru Uta.ogg
OFFSET:-2.662
DEMOSTART:81.788

COURSE:Oni
LEVEL:6
BALLOON:6,8,8,40
SCOREINIT:1010
SCOREDIFF:220
#START
,
,
,
2,
2,
22,
2,
2,
2,
22,
#BPMCHANGE 145
500000000000000000000000000000000000000000000008,
00404330,
4000000010010010,
40010010,
40010010,
4000000020112000,
1000200011102000,
1000200011102000,
21212120,
1020201120400000,
10201121,
1011011000000000,
1010201100102010,
500000000000000000000008000000000000100000100000,
10201121,
1011011000000000,
1010201100102050,
000000000000000000000008000000000000000000100000,
1010201110102010,
01010001,
1010201110102010,
01010001,
1010201110102010,
01010105,
000000000000000000000000000000000000000000000008,
00000001,
1010201110202010,
01210221,
1010201110202010,
01010107,
0870,
8011,
10017000,
8000000000001110,//44
#GOGOSTART
2000111020001110,
2000111020001110,
2000201110102060,
000000000000000000000008000000000000100100100000,
2000111020001110,
2020101100002020,
1000201110102060,
000000000000000000000008000000000000100100200000,
2000112020001120,
2000112020001120,
2000201110102060,
000000000000000000000008000000000000100100100000,
2000112020001120,
2020101100004040,
3000201110102060,
000000000000000000000008000000000000400000400000,
3000401110304070,
,
,
#GOGOEND
8,
#END

COURSE:Hard
LEVEL:5
BALLOON:4,5,5,5,5,32
SCOREINIT:950
SCOREDIFF:230
#START
,
,
,
2,
2,
22,
2,
2,
2,
22,
#BPMCHANGE 145
500000000000000000000000000000000000000000000008,
00404330,
4,
4,
4,
4022,
10201120,
10201120,
21212120,
12204400,
10201120,
10210120,
10201120,
1,
10201120,
10210120,
10201121,
500000000000000000000008000000000000000000100000,
10201021,
01210221,
10201021,
01210221,
10201021,
01210225,
000000000000000000000000000000000000000000000008,
00000001,
11201221,
000000100000100000500000000008000000000000100000,
11201221,
01010107,
0870,
8011,
10017000,
8000000000001110,//44
#GOGOSTART
1000111010001110,
1000111010001110,
10201016,
000000000000000000000008000000000000100100100000,
1000111010001110,
78,
10201016,
000000000000000000000008000000000000100100100000,
1000111010001110,
1000111010001110,
10201016,
000000000000000000000008000000000000100100100000,
1000111010001110,
70008022,
10201016,
000000000000000000000008000000000000400000400000,
30403037,
,
,//63
#GOGOEND
8,
,
,
,
,
#END

COURSE:Normal
LEVEL:4
BALLOON:6,6,20
SCOREINIT:1130
SCOREDIFF:310
#START
,
,
,
2,
2,
22,
2,
2,
2,
22,
#BPMCHANGE 145
5,
000000000000000000000008000000000000000000000000,
3,
3,
3,
3,
10101110,
10101110,
4444,
70000800,
1110,
12,
1110,
1,
1110,
12,
1110,
500000000000000000000000000008000000000000000000,
1110,
11,
2220,
22,
1110,
11,
500000000000000000000000000000000000000000000008,
,
1220,
11,
1220,
11,
100000000000000000000000500000000000000000000008,
0022,
9009,
8,//44
#GOGOSTART
10111010,
10111010,
1220,
600000000000000008000000000000000000100000000000,
10111010,
10111010,
1220,
600000000000000008000000000000000000100000000000,
10111010,
10111010,
1220,
600000000000000000000008000000000000100000000000,
10111010,
10111003,
3440,
600000000000000000000008000000000000300000000000,
30404009,
,
09,//63
#GOGOEND
8,
,
,
,
,
#END

COURSE:Easy
LEVEL:3
BALLOON:4,8,5,13
SCOREINIT:1000
SCOREDIFF:330
#START
,
,
,
2,
2,
22,
2,
2,
2,
22,
#BPMCHANGE 145
5,
000000000000000000000000000008000000000000000000,
3,
3,
3,
3,
11,
11,
3333,
78,
11,
1,
11,
1,
11,
1,
11,
500000000000000000000000000008000000000000000000,
11,
1,
22,
2,
11,
1,
500000000000000000000000000000000000000000000008,
,
1110,
12,
1110,
12,
100000000000000000000000500000000000000000000008,
0011,
9009,
8,//44
#GOGOSTART
1110,
1110,
10101006,
000000000000000000000008000000000000000000000000,
1110,
1110,
10101006,
000000000000000000000008000000000000000000000000,
1110,
1110,
20202006,
000000000000000000000008000000000000000000000000,
1110,
1110,
20202007,
08,
40404009,
,
09,//63
#GOGOEND
8,
,
,
,
,
#END
