//TJADB Project
TITLE:Hataraku 2000
TITLEJA:はたラク2000
SUBTITLE:--Linda AI-CUE
BPM:156.64
WAVE:Hataraku 2000.ogg
OFFSET:-1.705
DEMOSTART:13.685

COURSE:Oni
LEVEL:10
BALLOON:30
SCOREINIT:430
SCOREDIFF:100
#START
,
#BPMCHANGE 163.51
,
#BPMCHANGE 160
,
,
,
,
,
1111101110304000,
1021102110211120,
1022102210221220,
1021102110212120,
1122102211201020,
1111102022222010,
1122112210101120,
1112111011221120,
1022102211211010,
#GOGOSTART
#MEASURE 8/4
#BPMCHANGE 320
#SCROLL 0.5
11101010101010101110101010101000,
1110101010101010000000000000
#GOGOEND
#BPMCHANGE 160
#SCROLL 1
0000,
#MEASURE 4/4
#BPMCHANGE 106.65
#SCROLL 1.25
101100101102101100100000,
#SCROLL 0.95
101200101202120202100000,
#SCROLL 0.8
101102111102101102100000,
#SCROLL 0.7
100001100100122102100000,
#SCROLL 0.66
101100101102101100111100,
101200101202120202102100,
101102111102101102102100,
#BPMCHANGE 106.86
120101100100122122102100,
#MEASURE 8/4
102102102102122122122100
#BPMCHANGE 327.38
#SCROLL 0.5
000000000000000000000000,
#GOGOSTART
#BPMCHANGE 320
11101010101010101110101010101010,
11101010101010101110101010101000,
11101010101010101110101010101010,
11101010101010101110101011101000,
11101010102010201110101010201020,
11101010102010201110101022202020,
#GOGOEND
#MEASURE 9/8
#BPMCHANGE 157.8
#SCROLL 2.02
500000000000000000000008000000000000000000000000
#BPMCHANGE 160
#SCROLL 1
400000,
#MEASURE 4/4
1021102110212111,
1022102210221221,
1021102110211120,
1222102211201020,
1111202022221020,
1122112210111020,
1121112011221120,
1020102012221020,
#GOGOSTART
#MEASURE 7/4
#BPMCHANGE 320
9000000000000000
#BPMCHANGE 163.15
#SCROLL 1.96
0
#GOGOEND
80000000000,
#MEASURE 4/4
#BPMCHANGE 106.66
#SCROLL 1.25
101201101102101100100000,
#SCROLL 0.95
101200101202100202100000,
#SCROLL 0.8
101102111102101102100000,
#SCROLL 0.66
120101100100122122102100,
#MEASURE 8/4
122122122122122122122122
#BPMCHANGE 318.37
#SCROLL 0.5
000000000000000000000000,
#GOGOSTART
#BPMCHANGE 320
11101010101010101110101010101010,
11101010101010101110101011101000,
22202020101010102220202010101010,
#MEASURE 19/8
22202020102010202220202010201000
#GOGOEND
#BPMCHANGE 165.96
#SCROLL 1
000000,
#MEASURE 4/4
#BPMCHANGE 157.97
1100,
1001,
#MEASURE 3/4
#BPMCHANGE 164.73
200000112010,
#MEASURE 4/4
#BPMCHANGE 158.76
1021112110112112,
#BPMCHANGE 160
1021102110211212,
1021102110211222,
1122102111201000,
1111102022222010,
1112111012121000,
1122112011221120,
#BPMCHANGE 161.16
1122102010111000,
#GOGOSTART
#MEASURE 8/4
#BPMCHANGE 320
#SCROLL 0.5
11101010202020201110101020202020,
11101020202020201110202020002000,
11101010202010101110101020201010,
22202020101010102220202010101010,
11101010202020201110101020202020,
11102020111020201110111010002000,
11102020111020201020102010201020,
10222020102220201110101020004000,
#BPMCHANGE 316.87
1110102011101020
#BPMCHANGE 316.8
1000300030000000,
#END

COURSE:Hard
LEVEL:8
BALLOON:5,5,5,5
SCOREINIT:620
SCOREDIFF:157
#START
,
#BPMCHANGE 163.51
,
#BPMCHANGE 160
,
,
,
,
,
1011101010304000,
1011101110111000,
2022202070000080,
12121210,
1110200011102000,
1111100022222000,
1111100012121000,
1011101110222020,
1020102010222000,//16
#BPMCHANGE 320
#MEASURE 8/4
#SCROLL 0.5
#GOGOSTART
1110111011101110,
500000000000000000000008000000000000000000000000
#BPMCHANGE 160
#SCROLL 1
#GOGOEND
000000,//18
#BPMCHANGE 106.65
#MEASURE 4/4
#SCROLL 1.25
#GOGOSTART
10201120,//19
#GOGOEND
#SCROLL 1
12021000,
11201020,
1000100100000000,
11201020,
12021000,
1000200010002002,
#BPMCHANGE 106.86
0000000010110110,
#MEASURE 8/4
500000000000000000000000000000000000000000000008
#BPMCHANGE 327.38
#SCROLL 0.5
000000000000000000000000000000000000000000000000,//27
#BPMCHANGE 320
#GOGOSTART
1010111011101110,
1010111011101110,
1110111011101010,
1110111011103030,
1110111011101110,
1110111011101110,//33
#SCROLL 1
#BPMCHANGE 157.8
#MEASURE 9/8
#GOGOEND
500000000000000000000000000000000008000000000000
#BPMCHANGE 160
000000,
#MEASURE 4/4
1011101110111000,
2022202070000080,
12121210,
1110200011102000,
1111100022222000,
1111100012121000,
1011101110222020,
1020102010222000,//42
#BPMCHANGE 320
#MEASURE 7/4
#SCROLL 0.5
#GOGOSTART
500000000000000000000000000000000000000000000008
#BPMCHANGE 163.15
#GOGOEND
000000000000000000000000000000000000,//43
#BPMCHANGE 106.66
#SCROLL 1
#MEASURE 4/4
10201120,
12021000,
11201020,
1000000010110200,
#MEASURE 8/4
500000000000000000000000000000000000000000000008
#BPMCHANGE 318.37
#SCROLL 0.5
000000000000000000000000000000000000000000000000,//48
#BPMCHANGE 320
#GOGOSTART
5,
,
,
#MEASURE 19/8
000000000000000000000000000000000000000008000000
#BPMCHANGE 165.96
#GOGOEND
#SCROLL 1
000000000,//52
#BPMCHANGE 157.97
#MEASURE 4/4
,
,
#BPMCHANGE 164.73
#MEASURE 3/4
2,
#BPMCHANGE 158.76
#MEASURE 4/4
1011101110111000,
#BPMCHANGE 160
2022202070000080,
12121210,
1110200011102000,
1111100022222000,
1111100012121000,
1011101110222020,
#BPMCHANGE 161.16
1020102010222000,//63
#MEASURE 8/4
#BPMCHANGE 320
#SCROLL 0.5
#GOGOSTART
1011101110111010,
1022202070000080,
1022102010221000,
1110202011102000,
1111101022222000,
1111111012121000,
1011101110222020,
1022102010222000,
#BPMCHANGE 316.87
11101110
#BPMCHANGE 316.8
30303000,
#END

COURSE:Normal
LEVEL:7
SCOREINIT:960
SCOREDIFF:250
#START
,
#BPMCHANGE 163.51
,
#BPMCHANGE 160
,
,
,
,
,
11103330,
11101110,
22202000,
11101110,
22202000,
11102220,
11102020,
11101110,
11103000,//16
#BPMCHANGE 320
#MEASURE 8/4
#SCROLL 0.5
#GOGOSTART
11111111,
500000000000000000000000800000000000000000000000
#BPMCHANGE 160
#SCROLL 1
#GOGOEND
000000,//18
#GOGOSTART
#BPMCHANGE 106.65
#MEASURE 4/4
#SCROLL 1.25
1210,//19
#GOGOEND
#SCROLL 1
11,
1210,
11,
1210,
11,
1212,
#BPMCHANGE 106.86
11,
#MEASURE 8/4
500000000000000000000000000000000000000000000008
#BPMCHANGE 327.38
#SCROLL 0.5
000000000000000000000000000000000000000000000000,//27
#BPMCHANGE 320
#GOGOSTART
11111110,
11111110,
11111110,
11111130,
11111111,
11111111,//33
#BPMCHANGE 157.8
#MEASURE 9/8
#SCROLL 1
#GOGOEND
500000000000000000000000000000000008000000000000
#BPMCHANGE 160
000000,
#MEASURE 4/4
11101110,
11202000,
11101110,
11202000,
11102220,
11102020,
11101110,
11103000,//42
#BPMCHANGE 320
#MEASURE 7/4
#GOGOSTART
#SCROLL 0.5
500000000000000000000000000000000000000000000008
#BPMCHANGE 163.15
#GOGOEND
000000000000000000000000000000000000,//43
#BPMCHANGE 106.66
#SCROLL 1
#MEASURE 4/4
1210,
10021000,
1210,
11,
#MEASURE 8/4
500000000000000000000000000000000000000000000008
#BPMCHANGE 318.37
#SCROLL 0.5
000000000000000000000000000000000000000000000000,//48
#BPMCHANGE 320
#GOGOSTART
5,
,
,
#MEASURE 19/8
000000000000000000000000000000000000000008000000
#BPMCHANGE 165.96
#GOGOEND
#SCROLL 1
000000000,//52
#BPMCHANGE 157.97
#MEASURE 4/4
,
,
#BPMCHANGE 164.73
#MEASURE 3/4
,
#BPMCHANGE 158.76
#MEASURE 4/4
11111111,
#BPMCHANGE 160
1110,
11111111,
1110,
11102220,
11102020,
11111110,
#BPMCHANGE 161.16
11103000,//63
#MEASURE 8/4
#BPMCHANGE 320
#SCROLL 0.5
#GOGOSTART
11101110,
22202000,
11101110,
22202000,
5,
,
,
000000000000000000000000000000000000000000000000000000000000000000000008000000000000000000000000,
#BPMCHANGE 316.87
1110
#BPMCHANGE 316.8
3330,
#END

COURSE:Easy
LEVEL:5
SCOREINIT:770
SCOREDIFF:240
#START
,
#BPMCHANGE 163.51
,
#BPMCHANGE 160
,
,
,
,
,
1033,
1111,
2220,
1111,
2220,
34,
1120,
1111,
1130,//16
#BPMCHANGE 320
#MEASURE 8/4
#SCROLL 0.5
#GOGOSTART
1111,
500000000000000000000008000000000000000000000000
#BPMCHANGE 160
#SCROLL 1
#GOGOEND
000000,//18
#GOGOSTART
#BPMCHANGE 106.65
#MEASURE 4/4
#SCROLL 1.25
11,//19
#GOGOEND
#SCROLL 1
22,
11,
22,
1110,
22,
1110,
#BPMCHANGE 106.86
22,
#MEASURE 8/4
500000000000000000000000000000000000000000000008
#BPMCHANGE 327.38
#SCROLL 0.5
000000000000000000000000000000000000000000000000,//27
#BPMCHANGE 320
#GOGOSTART
1111,
1111,
1111,
1130,
11101110,
11101110,//33
#SCROLL 1
#BPMCHANGE 157.8
#MEASURE 9/8
#GOGOEND
500000000000000000000000000000000008000000000000
#BPMCHANGE 160
000000,
#MEASURE 4/4
1111,
2220,
1111,
2220,
34,
1120,
1111,
1130,//42
#BPMCHANGE 320
#MEASURE 7/4
#GOGOSTART
#SCROLL 0.5
500000000000000000000000000000000000000000000008
#BPMCHANGE 163.15
#GOGOEND
000000000000000000000000000000000000,//43
#BPMCHANGE 106.66
#SCROLL 1
#MEASURE 4/4
11,
22,
11,
22,
#MEASURE 8/4
500000000000000000000000000000000000000000000008
#BPMCHANGE 318.37
#SCROLL 0.5
000000000000000000000000000000000000000000000000,//48
#BPMCHANGE 320
#GOGOSTART
5,
,
,
#MEASURE 19/8
000000000000000000000000000000000000000008000000
#BPMCHANGE 165.96
#GOGOEND
#SCROLL 1
000000000,//52
#BPMCHANGE 157.97
#MEASURE 4/4
,
,
#BPMCHANGE 164.73
#MEASURE 3/4
,
#BPMCHANGE 158.76
#MEASURE 4/4
10101011,
#BPMCHANGE 160
11,
10101011,
11,
34,
1120,
1111,
#BPMCHANGE 161.16
1130,//63
#MEASURE 8/4
#BPMCHANGE 320
#SCROLL 0.5
#GOGOSTART
1111,
2220,
1111,
2220,
5,
,
,
000000000000000000000000000000000000000000000000000000000000000000008000000000000000000000000000,
#BPMCHANGE 316.87
11
#BPMCHANGE 316.8
33,
#END
