//TJADB Project
TITLE:Hayabusa
TITLEJA:隼
SUBTITLE:--Takafumi Sato
BPM:186
WAVE:Hayabusa.ogg
OFFSET:-1.506
DEMOSTART:32.467

COURSE:Oni
LEVEL:9
BALLOON:4
SCOREINIT:350
SCOREDIFF:100
#START
1010201200101000,
1010220200101000,
1010201200101000,
#BPMCHANGE 186.69
1022221120202000,
#BPMCHANGE 186
2020202200102000,
2020220200101000,
2020202200102000,
2020220200101000,
1020220220102000,
2020220220101000,
1020220220102000,
2020220220101000,
1020220220101020,
2020220220101020,
1020220220101020,
1020201040040040,
#SCROLL 2
1111111111111111,
#SCROLL 1
1010201110102011,
#SCROLL 2
1111111111111111,
#SCROLL 1
1010201110102011,
#SCROLL 2
1111111111111111,
#SCROLL 1
1010201110102011,
#SCROLL 2
1111111111111111,
#SCROLL 1
1020201040040040,
2011201020102010,
2010201120102010,
2011201020102011,
1020201010202010,
2011201020102010,
2010201120102010,
2011201020102011,
1020201040040040,
0000000000000000,
0000000000000000,
0020002000200020,
0000000000000000,
#SCROLL 2
1111111111111111,
#SCROLL 1
1010201110102011,
#SCROLL 2
1111111111111111,
1022222220020020,
#SCROLL 1
#GOGOSTART
1001102220101020,
2002201110202011,
1001102220101020,
2002201122112000,
1001102220101020,
2002201110202011,
1001102220101020,
1020201040040040,
#GOGOEND
0000000000000000,
2000002000000000,
0000000000000000,
2000001000002000,
0000000000000000,
1000202000000000,
1000002000001000,
0020000000000000,
1010202010000000,
0020100020000000,
1010202010000000,
0020100020101020,
1010202010000000,
0020100020000000,
1010202010000000,
2000102022102210,
0000000000000000,
3000000000000000,
5000000000008000,
3000000000000022,
2000001110010010,
3,
5008,
3000000000222000,
3000001120020020,
1010102010101020,
2010201020201020,
1010102010101020,
1020201010202010,
1010102010101020,
2010201020201020,
1010102010101020,
1020201040040040,
2011201020102010,
2010201120102010,
2011201020102011,
1020201010202010,
2011201020102010,
2010201120102010,
2011201020102011,
1020201040040040,
#MEASURE 2/4
0,
#MEASURE 4/4
3000222222222222,
#GOGOSTART
1010201202102000,
1010201202102000,
1010201122112000,
1010201202102000,
1010201202102000,
1010201202102000,
1020201070008000,
2010201120102011,
2010201120102011,
2010201120102011,
2010202010201020,
2010201120102011,
2010201120102011,
2010201120102011,
#BPMCHANGE 185
2011201120020020,
#GOGOEND
#BPMCHANGE 187
0,
0,
#BPMCHANGE 185
12122112,
#END

COURSE:Hard
LEVEL:8
BALLOON:8,8
SCOREINIT:480
SCOREDIFF:125
#START
1010202200000000,
1010220200000000,
1010202200000000,
7008,
2020202200000000,
2020220200000000,
2020202200000000,
2020220200000000,
1020220220100000,
2020220220100000,
1020220220100000,
2020220220100000,
1020220220101000,
2020220220101000,
1020220220101000,
2020220220000000,
#SCROLL 2
11111111,
#SCROLL 1
00201120,
#SCROLL 2
11111111,
#SCROLL 1
00201120,
#SCROLL 2
11111111,
#SCROLL 1
00201120,
#SCROLL 2
11111111,
#SCROLL 1
0120,
21212121,
21212120,
21212121,
12211220,
21212121,
21212120,
21212121,
1010100040040040,
,
,
02020202,
,
#SCROLL 2
11111111,
#SCROLL 1
00201120,
#SCROLL 2
11111111,
05008000,
#SCROLL 1
#GOGOSTART
1001102000101000,
2002201000101000,
1001102000101000,
2002201020202000,
1001102000101000,
2002201000101000,
1001102000101000,
1010100040040040,
#GOGOEND
,
20020000,
,
20010020,
,
10220000,
10020010,
02000000,
11221000,
01101000,
11221000,
02202220,
11221000,
01101000,
11221000,
4000000011101110,
,
3,
5008,
3000000000000022,
2000001110000000,
3,
5008,
3000000000222000,
34,
11121110,
21212210,
11121110,
12211220,
11121110,
21212210,
11121110,
7008,
21212121,
21212120,
21212121,
12211220,
21212121,
21212120,
21212121,
1010100040040040,
#MEASURE 2/4
,
#MEASURE 4/4
3508,
#GOGOSTART
1010101002102000,
1010101002102000,
1010101022202000,
1010101002102000,
1010101002102000,
1010101002102000,
11103000,
21212121,
21212120,
21212121,
21220202,
21212121,
21212120,
2010201020102011,
1010100020020020,
#GOGOEND
,
,
11121112,
,
,
#END

COURSE:Normal
LEVEL:7
BALLOON:6
SCOREINIT:760
SCOREDIFF:243
#START
#SCROLL 0.8
,
,
,
,
20220000,
22200000,
20220000,
22200000,
10110000,
22200000,
10110000,
22200000,
10110000,
22220000,
10110000,
22222000,
#SCROLL 2
500000000000000000000000000000000000000000000008,
#SCROLL 0.8
00001110,
#SCROLL 2
500000000000000000000000000000000000000000000008,
#SCROLL 0.8
00002220,
#SCROLL 2
500000000000000000000000000000000000000000000008,
#SCROLL 0.8
00001110,
#SCROLL 2
500000000000000000000000000000000000000000000008,
#SCROLL 0.8
03,
2222,
2222,
2222,
20202220,
2222,
2222,
2222,
22201000,
,
,
,
,
#SCROLL 2
500000000000000000000000000000000000000000000008,
#SCROLL 0.8
00001110,
#SCROLL 2
500000000000000000000000000000000000000000000008,
03,
#SCROLL 0.8
#GOGOSTART
11110000,
11110000,
11110000,
22220000,
11110000,
11110000,
11110000,
1130,
#GOGOEND
,
0202,
,
0202,
,
0202,
,
0110,
11100020,
,
11100020,
,
11100020,
,
11100000,
3,
,
3,
58,
3,
7008,
3,
58,
3,
33,
11101000,
2220,
11101000,
2220,
11101000,
2220,
11,
1130,
2222,
2222,
2222,
20202220,
2222,
2222,
2222,
22201000,
#MEASURE 2/4
,
#MEASURE 4/4
3,
#GOGOSTART
11110000,
11110000,
22220000,
11110000,
11110000,
11110000,
2240,
1111,
10101110,
1111,
1130,
1111,
10101110,
1111,
1130,
#GOGOEND
,
,
00002222,
,
,
#END

COURSE:Easy
LEVEL:5
BALLOON:5
#START
#SCROLL 0.8
,
,
,
,
3,
1100,
2,
2200,
1,
1100,
2,
2200,
11,
11,
1110,
2220,
#SCROLL 2
500000000000000000000000000000000000000000000008,
#SCROLL 0.8
0,
#SCROLL 2
500000000000000000000000000000000000000000000008,
#SCROLL 0.8
0,
#SCROLL 2
500000000000000000000000000000000000000000000008,
#SCROLL 0.8
0,
#SCROLL 2
500000000000000000000000000000000000000000000008,
#SCROLL 0.8
03,
2222,
2220,
2222,
2220,
2222,
2220,
2222,
2220,
,
,
,
,
#SCROLL 2
500000000000000000000000000000000000000000000008,
#SCROLL 0.8
0,
#SCROLL 2
500000000000000000000000000000000000000000000008,
#SCROLL 0.8
03,
#GOGOSTART
1110,
1110,
1110,
2220,
1110,
1110,
1110,
4440,
#GOGOEND
,
0202,
,
0202,
,
0202,
,
3,
1,
2,
1100,
2,
1,
2,
1100,
3,
,
3,
58,
3,
7008,
3,
58,
3,
33,
1110,
1,
1110,
2,
1110,
1,
11,
3330,
2222,
2220,
2222,
2220,
2222,
2220,
2222,
2220,
#MEASURE 2/4
0,
#MEASURE 4/4
3,
#GOGOSTART
1110,
1110,
2220,
1110,
1110,
1110,
2220,
1111,
1110,
1111,
1110,
1111,
1110,
2222,
2220,
#GOGOEND
,
,
,
,
,
#END
