//TJADB Project
TITLE:Shoujo no Kami no Ryuushi
TITLEJA:少女の神の粒子
SUBTITLE:--Mitsuhiro Kaneda (Basiscape) feat. Keiori Aihara
BPM:182
WAVE:Shoujo no Kami no Ryuushi.ogg
OFFSET:-2.640
DEMOSTART:52.743

COURSE:Oni
LEVEL:9
BALLOON:8,16,13,13,13,13,13
SCOREINIT:340
SCOREDIFF:73
#START
,
,
,
,
,
,
1010202010201210,
2010221000000000,
100000100000200000200000500000000000000008000000,
,
1010202010201210,
2010221020102000,
100000100000200000200000500000000000000008000000,
,
1010202010201210,
2010221022102000,
11700080,
1210221020022020,
1010202010201210,
1020221000000000,
11220000,
0000111010102000,
1010202012201210,
1010221000102000,
11220102,
1010202011200020,
1010202012201210,
1000221000102000,
1010202021200020,
1011202011201120,
1010202012201210,
1010221022102020,
11700000,
0080001010121020,
1010202012201210,
1010221020112020,
2011201021201210,
4343,
1011201020121020,
1010221012201220,
1022101020121020,
7008,
1011201020121020,
1010221012201220,
1022101020121020,
7008,
1011201022121020,
1010221012201220,
1022101022121020,
500000000000000000000000000000000000000008000000,
2011201022121020,
1022112022101020,
1022101022121020,
1111201210102212,
,
1010202012201210,
1010221000102000,
11220102,
1010202011200020,
1010202012201210,
1000221000102000,
1010202021200020,
1011202011201120,
1010202012201210,
1010221022102020,
1010202011201210,
1010201120121020,
1010202012201210,
1010221020112020,
2011201021201210,
4343,
1011201020121020,
1010221012201220,
1022101022121020,
7008,
1011201020121020,
1010221012201220,
1022101020121020,
7008,
1011201022121020,
1010221012201220,
1022101022121020,
500000000000000008000000200200100000200200100000,
2011201022121020,
1022112022101022,
1022101022121022,
1022101020112020,
1022101020112020,
1122101022112020,//89
#GOGOSTART
1021201020102020,
1121201020102000,
1121201020102000,
1121201020102000,
1010222010102220,
1010201020102220,
1010222010102220,
500000000000000000000000000008000000200000200000,
1121201022112020,
1121201020102000,
1121201022112020,
1121201011221000,
1121201022112020,
1121201022102000,
1121201022112020,
1121201011112000,
1121201020112020,
1121201122102020,
1121201022102020,
7008,
1121201020102020,
1121201022102020,
1121201011212020,
1111202011112000,
1010201022102220,
1010221022102220,
1011201122102020,
1111202010102211,
1010221022102020,
1110221022102020,
1111202011112020,
1111222211112120,
#END

COURSE:Hard
LEVEL:7
BALLOON:11,13,11,11,11,11,11
#START
,
,
,
,
,
,
11221112,
11210000,
100000100000200000200000500000000000000008000000,
,
11221212,
11210000,
100000100000200000200000500000000000000008000000,
,
11221212,
100000100000200000100000500000000008000000000000,
11700000,
8,
11221212,
11210000,
11220000,
0000111010100000,
11221212,
11210122,
11220102,
1010200011100020,
11221212,
11210122,
1010202011100020,
11221212,
11221212,
11212122,
11700000,
00811112,
11221212,
11212120,
2121,
4343,
11210120,
11021210,
11212120,
7008,
11210120,
11021210,
11212120,
7008,
11210120,
11021210,
11210120,
500000000000000000000000000000000000000008000000,
11210120,
11121120,
11120122,
1011101110101111,
,
11221212,
11210122,
11220102,
1010200011100020,
11221212,
11210122,
1010202011100020,
11221212,
11221212,
11212122,
11221102,
11212112,
11221212,
11212122,
12112221,
4343,
11210122,
11121212,
11212122,
7008,
11210122,
11121212,
11212120,
7008,
11210122,
11121212,
11210122,
500000000000000008000000100000100000200000100000,
11210122,
11121122,
11120122,
11120121,
01120121,
01120121,//89
#GOGOSTART
10212120,
10210120,
10210120,
11210120,
11221122,
11210122,
11221122,
500000000000000000000000000000000008000000000000,
11210122,
11210122,
11210122,
1010001011101110,
11210122,
11210122,
11210122,
500000000000000000000000000000000008000000000000,
11210122,
11210122,
11210122,
7008,
11212122,
11212122,
1110201020102020,
1110222011102220,
1010201022201000,
1010201022201000,
10212122,
1020102010201110,
1010201022201020,
1010201022201020,
10212122,
1110111011102220,
,
#END

COURSE:Normal
LEVEL:5
BALLOON:12,10,8,8,12,10,12,10,8,8,12,11
#START
,
,
,
,
,
,
00010101,
02000110,
100000000000200000200000500000000000000008000000,
,
0011,
10220000,
100000100000100000100000500000000000000008000000,
00002220,
00010101,
000000200000000000000000500000000000000000000008,
00001111,
,
0011,
10220000,
11110000,
,
00010101,
02000111,
10220000,
11200200,
0011,
10220000,
11110200,
22002222,
00010101,
02002222,
00001110,
00101011,
0211,
1120,
2121,
4343,
7,
0811,
10111070,
0008,
10170000,
0811,
10111070,
0089,
00000900,
8,
11110050,
000000000008000000000000100000100000100000100000,
9009,
8,
11110111,
500000000000000000000000000000000000000000000008,
,
10010101,
02000111,
10220000,
,
1011,
10220000,
11110000,
500000000000000008000000400000000000000000000000,
10010101,
02000000,
10002220,
10101011,
1211,
10110000,
11110111,
4343,
7,
0811,
10111070,
0008,
10170000,
0811,
10111070,
0089,
00000900,
8,
11110050,
000000000008000000000000100000100000100000000000,
11150000,
000000000000000000000008000000000000000000000000,
11110030,
00001110,
02220111,
02220111,//89
#GOGOSTART
10210000,
10210000,
10210000,
10210000,
10201120,
10210120,
10201120,
500000000000000000000000000000000008000000000000,
10210110,
10210110,
10210110,
500000000000000000000000000000000008000000000000,
10210220,
10210220,
10210220,
500000000000000000000000000000000008000000000000,
10210120,
10210120,
10210120,
7008,
10210110,
10210220,
10210120,
500000000000000000000000000000000008000000000000,
11110000,
10010110,
10201120,
10201120,
10010110,
10011110,
10201120,
11101122,
,
,
#END

COURSE:Easy
LEVEL:4
BALLOON:10,8,6,6,10,8,10,8,6,6,10,11,11
#START
,
,
,
,
,
,
00010101,
01000000,
3300,
,
0011,
1100,
4400,
0022,
00010101,
01000000,
0033,
,
0011,
1100,
4400,
,
00010101,
01000000,
3300,
00200200,
0011,
1100,
40400200,
2011,
00010101,
01002020,
0011,
0111,
0011,
1120,
22,
44,
7,
0812,
1217,
0008,
10070000,
0811,
1117,
0089,
00000900,
8,
1105,
000000000008000000000000000000000000000000000000,
9009,
8,
10100500,
000000000000000000000000000000000000000000000008,
,
10010101,
01000000,
3300,
,
1011,
1100,
4400,
04,
10010101,
01000000,
1022,
0111,
0011,
1100,
11,
4444,
7,
0812,
1217,
0008,
10070000,
0811,
1117,
0089,
00000900,
8,
1105,
000000000008000000000000900000000000000000000000,
09,
8,
1103,
,
,
500000000000000000000000000000000008000000000000,//89
#GOGOSTART
10010000,
10010000,
10010000,
10010000,
1212,
12,
1212,
500000000000000000000000000000000008000000000000,
10010010,
10010010,
10010010,
500000000000000000000000000000000008000000000000,
10020020,
10020020,
10020020,
500000000000000000000000000000000008000000000000,
10010020,
10010020,
10010020,
7008,
10010010,
10020020,
10010020,
500000000000000000000000000000000008000000000000,
4,
4,
1212,
1110,
1210,
1210,
1212,
3434,
,
,
#END
