//TJADB Project
TITLE:Tsukikage SASURAI
TITLEJA:月影SASURAI
SUBTITLE:--taichi hiyama
BPM:137
WAVE:Tsukikage SASURAI.ogg
OFFSET:-2.003
DEMOSTART:54.310

COURSE:Edit
LEVEL:9
BALLOON:6,8
SCOREINIT:370
SCOREDIFF:100
#START
#MEASURE 3/4
102202,
102200,
102202,
102200,
100210201020,
100210201020,
100211200211,
201110304000,
#GOGOSTART
101020120201,
101020120201,
101020120201,
100200100200,
102020120211,
102020120211,
102020120211,
100200100200,
#GOGOEND
101122120202,
101020110200,
102211210102,
101020110200,
101122120202,
101020110200,
112211210102,
101020110200,
121212210202,
101020022122,
112212210202,
101020022122,
121212210202,
102212210202,
122122,
100200100200,
101211,
101200,
101211,
101200,
100211200211,
211211,
201210201210,
112110400000,
#GOGOSTART
120210102011,
120210102021,
120210102011,
120210102020,
221111112211,
111122111122,
100211200211,
#MEASURE 2/4
21200000,
#MEASURE 3/4
300211200211,
#GOGOEND
#MEASURE 7/8
21200002212212,
#MEASURE 5/8
1020100201,
1020100201,
1022122121,
1020100201,
1021121212,
1020112202,
1121121201,
17008,
1011221221,
1211220221,
1011220202,
1011220221,
1202101202,
1010202101,
21212,
3020201202,
#MEASURE 3/4
102020010200,
#MEASURE 5/8
3020201202,
#MEASURE 3/4
100200202010100000,
#MEASURE 5/8
1112020210,
#MEASURE 3/4
100100100200000200
000202010100000000,
#MEASURE 5/8
11102200,
#MEASURE 3/4
112200700000000000,
8,
020202,
22,
112212112212,
100211200211,
211211,
201210201210,
112110400000,
#GOGOSTART
120210102011,
120210102021,
120210102011,
120210102020,
221111112211,
111122111122,
100211200211,
200211212120,
120210112110,
120210211120,
112120212110,
112120212110,
#GOGOEND
221111112211,
111122111122,
#GOGOSTART
100211200211,
#MEASURE 2/4
21200000,
#MEASURE 3/4
300211200211,
#MEASURE 2/4
21200001,
#GOGOEND
#MEASURE 7/8
21122121122121,
#GOGOSTART
#MEASURE 3/4
101020120201,
101020120201,
101020120201,
100200100200,
102020120211,
102020120211,
102020120211,
100200300400,
#GOGOEND
#END

COURSE:Oni
LEVEL:8
BALLOON:5,8
SCOREINIT:550
SCOREDIFF:140
#START
#MEASURE 3/4
12,
102200,
12,
102200,
101121,
101212,
100200100200,
212120,
#GOGOSTART
101020120200,
101020120200,
101020120200,
100200100200,
102020120200,
102020120200,
102020120200,
100200100200,
#GOGOEND
101122010102,
100020110200,
102211010102,
100020110200,
101122010102,
100020110200,
102211010102,
100020110200,
102112020202,
100020120200,
101221020202,
100020120200,
102112020202,
101221020202,
122122,
100200100200,
100201,
12,
100201,
12,
100200100200,
112112,
111020111020,
111110400000,
#GOGOSTART
120210102010,
120210102020,
120210102010,
120210102020,
221110211110,
221110211110,
100200100200,
#MEASURE 2/4
12100000,
#MEASURE 3/4
100200100200,
#GOGOEND
#MEASURE 7/8
12100000000000,
#MEASURE 5/8
1010200201,
1010200201,
1010200201,
1020100200,
1010200201,
1010200201,
1010200201,
1020100200,
1011220201,
1011220201,
1022110201,
1022110201,
1102201102,
2010201102,
21212,
1010200100,
#MEASURE 3/4
101020010200,
#MEASURE 5/8
1010200100,
#MEASURE 3/4
100200202010100000,
#MEASURE 5/8
1112020200,
#MEASURE 3/4
111207000800,
#MEASURE 5/8
11102200,
#MEASURE 3/4
110700000,
8,
,
11,
122122,
100200100200,
112112,
111020111020,
111110400000,
#GOGOSTART
120210102010,
120210102020,
120210102010,
120210102020,
221110211110,
221110211110,
100200100200,
112112,
120210112020,
120210221020,
120210112110,
120210221220,
#GOGOEND
12,
12,
#GOGOSTART
100200100200,
#MEASURE 2/4
12100000,
#MEASURE 3/4
100200100200,
#MEASURE 2/4
12100000,
#GOGOEND
#MEASURE 7/8
0000040,
#GOGOSTART
#MEASURE 3/4
101020120200,
101020120200,
101020120200,
300400300400,
102020120200,
102020120200,
102020120200,
300400300400,
#GOGOEND
#END

COURSE:Hard
LEVEL:7
BALLOON:3,4,5,8
SCOREINIT:610
SCOREDIFF:163
#START
#MEASURE 3/4
12,
102200,
12,
102200,
101200,
101200,
1212,
101120,
#GOGOSTART
101010010100,
101010010100,
101010010100,
1212,
101010020200,
101010020200,
101010020200,
1212,
#GOGOEND
100020010100,
120,
100020010100,
120,
100020010100,
120,
100020010100,
120,
100020020200,
120,
100020020200,
120,
100020020200,
100020020200,
111222,
500000000000000000000008000000000000000000000000,
100201,
12,
100201,
12,
1212,
111222,
500000000000000000000000000000000000000000000008,
,
#GOGOSTART
110110102020,
110110100000,
110110102020,
110110100000,
112112,
112112,
1212,
#MEASURE 2/4
3400,
#MEASURE 3/4
1212,
#GOGOEND
#MEASURE 7/8
3400000,
#MEASURE 5/8
1000100200,
1000100200,
1000100200,
11200,
1000100200,
1000100200,
1000100200,
11200,
1010200200,
11200,
1010200200,
11200,
1102201102,
2010201101,
11122,
2000200200,
#MEASURE 3/4
102020010200,
#MEASURE 5/8
2000200200,
#MEASURE 3/4
100200202020200000,
#MEASURE 5/8
70080,
#MEASURE 3/4
78,
#MEASURE 5/8
70080,
#MEASURE 3/4
7,
8,
,
22,
2,
1212,
111222,
500000000000000000000000000000000000000000000008,
,
#GOGOSTART
110110102020,
110110100000,
110110102020,
110110100000,
112112,
112112,
1212,
100200101020,
110110101020,
110110102000,
110110101020,
110110102000,
#GOGOEND
3,
,
#GOGOSTART
1212,
#MEASURE 2/4
3400,
#MEASURE 3/4
1212,
#MEASURE 2/4
3400,
#GOGOEND
#MEASURE 7/8
,
#GOGOSTART
#MEASURE 3/4
101010030300,
101010030300,
101010030300,
3434,
101010040400,
101010040400,
101010040400,
3434,
#GOGOEND
#END

COURSE:Normal
LEVEL:6
BALLOON:14,2,3,4,7
SCOREINIT:840
SCOREDIFF:255
#START
#MEASURE 3/4
12,
12,
11,
1,
12,
12,
11,
1,
#GOGOSTART
111000,
111000,
111000,
500000000000000000000000000000080000000000000000,
222000,
222000,
222000,
500000000000000000000000000000080000000000000000,
#GOGOEND
120,
110,
120,
110,
120,
110,
120,
110,
120,
220,
120,
220,
120,
220,
500000000000000000000000000000080000000000000000,
,
11,
12,
11,
1,
34,
34,
600000000000000000000000000000000000000000000008,
,
#GOGOSTART
101101,
101100,
101101,
101100,
101101,
102200,
33,
#MEASURE 2/4
4,
#MEASURE 3/4
33,
#GOGOEND
#MEASURE 7/8
4,
#MEASURE 5/8
22200,
1,
22200,
1,
22200,
1,
22200,
1,
22200,
22200,
11100,
1,
22200,
22200,
11100,
9,
#MEASURE 3/4
,
#MEASURE 5/8
8,
#MEASURE 3/4
,
#MEASURE 5/8
70080,
#MEASURE 3/4
78,
#MEASURE 5/8
70080,
#MEASURE 3/4
7,
8,
,
22,
2,
34,
34,
600000000000000000000000000000000000000000000008,
,
#GOGOSTART
101101,
102200,
101101,
102200,
102201,
102200,
500000000000000000000000000000000000000000000008,
,
102201,
102201,
102201,
102200,
#GOGOEND
3,
,
#GOGOSTART
33,
#MEASURE 2/4
4,
#MEASURE 3/4
33,
#MEASURE 2/4
4,
#GOGOEND
#MEASURE 7/8
,
#GOGOSTART
#MEASURE 3/4
111000,
111000,
111000,
500000000000000000000000000000080000000000000000,
333000,
333000,
333000,
600000000000000000000000000000080000000000000000,
#GOGOEND
#END

COURSE:Easy
LEVEL:5
BALLOON:10,3,3,3,6
SCOREINIT:640
SCOREDIFF:198
#START
#MEASURE 3/4
1,
1,
11,
1,
1,
1,
11,
1,
#GOGOSTART
110,
110,
110,
500000000000000000000000000000080000000000000000,
220,
220,
220,
500000000000000000000000000000080000000000000000,
#GOGOEND
110,
1,
110,
1,
110,
1,
110,
1,
110,
2,
110,
2,
110,
2,
500000000000000000000000000000000000000000000008,
,
11,
1,
11,
1,
33,
33,
600000000000000000000000000000000000000000000008,
,
#GOGOSTART
101100,
101100,
11,
2,
101100,
101100,
33,
#MEASURE 2/4
4,
#MEASURE 3/4
33,
#GOGOEND
#MEASURE 7/8
4,
#MEASURE 5/8
20200,
1,
20200,
1,
20200,
1,
20200,
1,
20200,
20200,
10100,
1,
20200,
20200,
10100,
9,
#MEASURE 3/4
,
#MEASURE 5/8
8,
#MEASURE 3/4
,
#MEASURE 5/8
70080,
#MEASURE 3/4
78,
#MEASURE 5/8
70080,
#MEASURE 3/4
7,
8,
,
22,
2,
33,
33,
600000000000000000000000000000000000000000000008,
,
#GOGOSTART
101100,
101100,
101100,
2,
101100,
101100,
500000000000000000000000000000000000000000000008,
,
101100,
101100,
202200,
202200,
#GOGOEND
3,
,
#GOGOSTART
33,
#MEASURE 2/4
4,
#MEASURE 3/4
33,
#MEASURE 2/4
4,
#GOGOEND
#MEASURE 7/8
,
#GOGOSTART
#MEASURE 3/4
110,
110,
110,
500000000000000000000000000000080000000000000000,
330,
330,
330,
600000000000000000000000000000080000000000000000,
#GOGOEND
#END
