//TJADB Project
TITLE:Hurtling Boys
TITLEJA:Hurtling Boys
SUBTITLE:--Sadakichi
SUBTITLEJA:さだきち
BPM:195
WAVE:Hurtling Boys.ogg
OFFSET:-1.934
DEMOSTART:51.151 //shinuchi:
2500/2160/1490/1070

COURSE:Oni
LEVEL:10
BALLOON:40
SCOREINIT:360,1110
SCOREDIFF:88
#START
1000200000102210,
0020102000201022,
1000200010102210,
0010000030030030,
0000400000001100,
00100011,
11111111,
2020202020221111, //8
#GOGOSTART
1012102210221022,
1022102210201111,
1012102210221010,
1010101012221020,
1012102210221022,
1022102210201111,
11111111,
#GOGOEND
2020222022111222, //16
#GOGOSTART
1012102210221022,
1022102210201111,
1012102210221010,
1010101012221020,
#SCROLL 1.25
30030030,
#SCROLL 1.5
03003030,
#SCROLL 2
300000000300000100010001000100100100101010101010,
#GOGOEND
#SCROLL 1
2220202030040040, //24
#GOGOSTART
1110201122102022,
1020221220122210,
1110201122102022,
100000200000200000100200200200100202020200100200,
1210201222102220,
1202101202102220,
1210201222102220,
100200200200200200100200200200100202020200100200, //32
1210201122102012,
1210201222102012,
100200100000200000100200200200100200200202020200,
100200200200100200200200200200100202020200100200,
#GOGOEND
10010010,
#SCROLL 1.25
01001010,
#SCROLL 1.5
10101011,
#SCROLL 2
1010101011112000, //40
#SCROLL 1
#GOGOSTART
1022100210120012,
0210201012010210,
1022100210120012,
0210201012221000,
1212100210120012,
0210021012010210,
1201021012010012,
1210111120004000, //48
1022100210120012,
0210201012010210,
1212100210120012,
0210201212122222,
1000021010121020,
1210111120004000,
300300300300112112112112,
101010200100200101010200100200102010101020000000, //56
#GOGOEND
#SCROLL 0.5
12,
#BARLINEOFF
12,
#BARLINEON
12,
#BARLINEOFF
12,
#BARLINEON
11,
#BARLINEOFF
1022,
#BARLINEON
#SCROLL 0.75
10101111,
#BARLINEOFF
#SCROLL 1
1112122211221212, //64
#BARLINEON
#GOGOSTART
1110201120201110,
2011202011102020,
1110201120201110,
200200101010100200200100100100200200100100200200,
1110201120201110,
200000100100200200100100100200200101010100200200,
1012101012101022,
#GOGOEND
1002101002102010, //72
#GOGOSTART
1012122210221022,
1022102212221212,
1020122210201212,
100000200200100000200000100200200200100202020200,
1022102010102210,
2010221010121222,
1010122210101012,
100200200200100000200000100200200200100202020200, //80
1012122211221222,
100100200200100200100200100200200200100202020200,
1212122211221222,
100100200200100200200200100200100200100202020200,
100000202020200000100000200200100000100000202020,
200000100000200200100000100202020200100200100200,
1001004010010040,
100100100100100000000000400000202020100100100100, //88
#GOGOEND
7,
0,
8,
0,
0,
0, //94
#END

COURSE:Hard
LEVEL:8
BALLOON:11,18
SCOREINIT:390,1580
SCOREDIFF:95
#START
10200101,
02120212,
10201101,
0010000030030030,
0000400000001100,
00100011,
11111111,
2020202020221020, //8
#GOGOSTART
1010102200220022,
0022002200220020,
1010102200221010,
1010101011102000,
1010102200220022,
0022002200220020,
11111111,
#GOGOEND
2020222011111020, //16
#GOGOSTART
1010102200220022,
0022002200220022,
1010102200221010,
1010101011102000,
#SCROLL 1.25
30030030,
#SCROLL 1.5
03003030,
#SCROLL 2
300000000300000100010001000100100100500000000008,
#GOGOEND
#SCROLL 1
0000000030040040, //24
#GOGOSTART
1110201200102020,
1110201200201020,
1110201200102020,
1020201110222010,
10210221,
2020100020020020,
1110201000102010,
0020102011101111, //32
1110201200102020,
1110201200201020,
1110201200102010,
0020102011101111, //36
#GOGOEND
10010010,
#SCROLL 1.25
01001010,
#SCROLL 1.5
10101011,
#SCROLL 2
1010101011102000, //40
#SCROLL 1
#GOGOSTART
1000100010120010,
0210201010020020,
1000100010120010,
0210201011111000,
1010100010120010,
0210001012010010,
1201001012010010,
1010111120004000, //48
1000100010120010,
0210201010020020,
1010100010120010,
0210201011111000,
1000021010001000,
0210111120004000,
33337000,
0008, //56
#GOGOEND
#SCROLL 0.5
12,
#BARLINEOFF
12,
#BARLINEON
12,
#BARLINEOFF
12,
#BARLINEON
11,
#BARLINEOFF
1022,
#BARLINEON
#SCROLL 0.75
10101111,
#BARLINEOFF
#SCROLL 1
500000000000000000000000000000000000000008000000, //64
#BARLINEON
#GOGOSTART
1110201020201110,
2010202011102020,
1110201020201110,
2202201022022010,
1110201020201110,
2010222022222020,
1012001012001022,
#GOGOEND
0002101002102010, //72
#GOGOSTART
1012102010201020,
1020102010201120,
1020222010202220,
1022002000202222,
12100121,
0020102010222020,
1010222010102220,
1022222011111020, //80
1022002200220022,
0022101010201111,
1020102200220022,
0022002200201111,
1022201022101022,
2010221010221111,
1001004010010040,
1111100040221111, //88
#GOGOEND
7,
0,
8,
0,
0,
0, //94
#END

COURSE:Normal
LEVEL:7
BALLOON:9,14
SCOREINIT:450,2350
SCOREDIFF:113
#START
10200101,
02120212,
10201101,
0010000030030030,
0000400000001100,
00100011,
11111111,
22222020, //8
#GOGOSTART
11101012,
10101012,
11101011,
11111040,
11101012,
10101012,
11111111,
#GOGOEND
2, //16
#GOGOSTART
11101012,
10101012,
11101011,
11111020,
#SCROLL 1.25
30030030,
#SCROLL 1.5
03003030,
#SCROLL 2
300000000300000500000000000000000000000000000008,
#GOGOEND
#SCROLL 1
0000000030040040, //24
#GOGOSTART
11201021,
01201020,
11210121,
01201021,
10210212,
0020100020020020,
11210121,
02021011, //32
11201021,
01201020,
11210121,
000000200000100000500000000000000000000000000008,
#GOGOEND
00010010,
#SCROLL 1.25
01001010,
#SCROLL 1.5
10101011,
#SCROLL 2
11111120, //40
#SCROLL 1
#GOGOSTART
10101121,
0010201010020020,
10101121,
01211020,
11101121,
0010201010010010,
1001001010010010,
100000100000500008000000400000000000400000000000, //48
10101121,
0010201010020020,
11101121,
01211020,
10011010,
01114040,
33337000,
0008, //56
#GOGOEND
#SCROLL 0.5
12,
#BARLINEOFF
12,
#BARLINEON
12,
#BARLINEOFF
12,
#BARLINEON
11,
#BARLINEOFF
1022,
#BARLINEON
#SCROLL 0.75
10101111,
#BARLINEOFF
#SCROLL 1
500000000000000000000000000000000000000008000000, //64
#BARLINEON
#GOGOSTART
11220221,
01221122,
11220210,
2002001020020010,
12211011,
500000000000000000000000000000000008000000000000,
1002001020001020,
#GOGOEND
0, //72
#GOGOSTART
11101212,
12121210,
12221222,
12020220,
12100121,
02121220,
11201120,
10221120, //80
12020202,
02020211,
12020202,
000000200000000000500000000000000008000000000000,
30202103,
02021040,
1001004010010040,
500000000008000000000000400000000000200000200000, //88
#GOGOEND
7,
0,
8,
0,
0,
0, //94
#END

COURSE:Easy
LEVEL:5
BALLOON:9,14
SCOREINIT:270,2730
SCOREDIFF:68
#START
10200101,
0,
10201101,
0010000030030030,
0000400000001100,
0101,
10101111,
22222020, //8
#GOGOSTART
11101010,
1111,
11101011,
11111040,
11101010,
1111,
11111111,
#GOGOEND
2, //16
#GOGOSTART
11101010,
1111,
11101011,
11111020,
#SCROLL 1.25
30030030,
#SCROLL 1.5
03003030,
#SCROLL 2
300000000300000500000000000000000000000000000008,
#GOGOEND
#SCROLL 1
0, //24
#GOGOSTART
11101020,
01101020,
11101020,
01101020,
10110012,
0020100020020020,
10110222,
02021011, //32
11201020,
01201020,
10210121,
000000200000100000500000000000000000000000000008,
#GOGOEND
00010010,
#SCROLL 1.25
01001010,
#SCROLL 1.5
10101011,
#SCROLL 2
11111120, //40
#SCROLL 1
#GOGOSTART
10101101,
0010001010020020,
10101101,
01011020,
11101101,
0010001010010010,
1001001010010010,
11104040, //48
10101101,
0010001010020020,
11101101,
01011020,
10011010,
01114040,
33337000,
0008, //56
#GOGOEND
#SCROLL 0.5
12,
#BARLINEOFF
12,
#BARLINEON
12,
#BARLINEOFF
12,
#BARLINEON
11,
#BARLINEOFF
1022,
#BARLINEON
#SCROLL 0.75
10101110,
#BARLINEOFF
#SCROLL 1
500000000000000000000000000000000000000008000000, //64
#BARLINEON
#GOGOSTART
11220222,
01101110,
11220250,
000000000000000000000008000000000000000000000000,
11022011,
500000000000000000000000000000000008000000000000,
11011022,
#GOGOEND
0, //72
#GOGOSTART
11101010,
10101210,
10221022,
02020120,
12100121,
02121020,
11201120,
10210000, //80
12020202,
02020210,
12020202,
000000200000000000500000000000000008000000000000,
30202203,
02022040,
1001004010010040,
500000000008000000000000400000000000200000200000, //88
#GOGOEND
7,
0,
8,
0,
0,
0, //94
#END
