//TJADB Project
TITLE:Night and Day
TITLEJA:Night And Day
SUBTITLE:--Nobuhide Isayama & Masako Oogami/ACE COMBAT 2
SUBTITLEJA:「ACE COMBAT 2」より
BPM:140
WAVE:Night and Day.ogg
OFFSET:-2.042
DEMOSTART:43.184

COURSE:Oni
LEVEL:9
SCOREINIT:400
SCOREDIFF:110
#START
11120000,
11120000,
11120000,
1010104000400022,
11120020,
1010102000101110,
11120020,
1010102000102222,
11120020,
1010102000101110,
11120020,
1010104000400022,
11120020,
1010102000101110,
11120020,
#BPMCHANGE 140.26
2210102210101000,
#BPMCHANGE 140
2112112000102000,
2112112000112101,
2112112000102000,
2112112000112101,
2112112000102000,
2112112000112101,
2112112000102000,
1222221010221011,//24
#GOGOSTART
1011201012122212,
1011201110112101,
1011201110112211,
1011201110112101,
1011201012122212,
1011201110112101,
1011201110112210,
102020200200200200000200000100100000200100000100,
1011201012122212,
1011201110112101,
2212012212012212,
0122120404040402,
200200000000000000500000000000000000000008000000,
2204040220404000,
200200000000000000500000000000000000000008000000,//39
#GOGOEND
#BPMCHANGE 140.24
300000000000000000101010200000200000200200100000,
#BPMCHANGE 140
1001220202020202,
0202001012212212,
1201001010012020,
1010201011010000,
1010111212121212,
1221222122212212,
1201001010001112,
1222122212010010,
2202010202201020,
1020220201020220,
1022010200101221,
2212122120210101,
1110101201010111,
2210101201010111,
111111111111,
111111111111,
1001210100110221,
2210102210101000,
2112112000102000,
2112112010112101,
2112112000102000,
2112112010112101,
2112112000102000,
2112112010112101,
2112112000102000,
102020200200200200100000100200200100100200200100,//66
#GOGOSTART
1011201012122212,
1011201110112101,
2212012212012212,
0122120404040402,
200200000000000000500000000000000000000008000000,
2204040220404000,
200200000000000000500000000000000000000008000000,//73
#GOGOEND
3,
#END

COURSE:Hard
LEVEL:8
#START
11120000,
11120000,
11120000,
1010104000400011,
11120020,
11120101,
11120020,
1010102000102220,
11120020,
11120101,
11120020,
1010104000400011,
11120020,
11120101,
11120020,
2200002200000000,
1001001000102000,
1001001000102100,
1001001000102000,
1001001000102100,
1001001000102000,
1001001000102100,
1001001000102000,
1022201010111000,//24
#GOGOSTART
1011101010111000,
1011101010111000,
1011101010111000,
1011101010112000,
1011101010111000,
1011101010111000,
1011101010112000,
1110110101101000,
1011101010222000,
1011101010222000,
2222002222002222,
0022220202020202,
200200000000000000500000000000000000000008000000,
2202020220202000,
200200000000000000500000000000000000000008000000,//39
#GOGOEND
3,
1000110101010101,
0101000001101010,
1001000000011010,
1010200011010000,
1000110101010101,
0110111011101110,
1101000000001001,
0101101011010000,
1001010100200000,
0000100101020020,
1001010100000110,
1010111010110100,
1010101100000101,
1010101100000000,
111111111111,
111111111111,
1000110100010110,
3,
1001001000102000,
1001001000102100,
1001001000102000,
1001001000102100,
1001001000102000,
1001001000102100,
1001001000102000,
1022201010111000,//66
#GOGOSTART
1011201010112000,
1011201010112000,
2222002222002222,
0022220202020202,
200200000000000000500000000000000000000008000000,
2202020220202000,
200200000000000000500000000000000000000008000000,//73
#GOGOEND
4,
,
#END

COURSE:Normal
LEVEL:6
BALLOON:20
#START
11120000,
11120000,
11120000,
11140400,
11120020,
11120010,
11120020,
11120010,
11120020,
11120010,
11120020,
11140400,
11120020,
11120010,
11120020,
40040000,
1001001000002000,
1001001000102000,
1001001000002000,
1001001000102000,
1001001000002000,
1001001000102000,
1001001000002000,
500000000000000000000000000008000000000000000000,//24
#GOGOSTART
10211021,
10211020,
10211021,
10211120,
10211021,
10211020,
10211021,
500000000000000000000000000008000000000000000000,
10211021,
10211020,
20020020,
500000000000000000000000000008000000000000000000,
100000000000000000500000000000000008000000000000,
3,
100000000000000000500000000000000008000000000000,//39
#GOGOEND
3,
1202,
1212,
1002,
1210,
1202,
1202,
1002,
1210,
10200220,
10200220,
10200220,
1210,
10200220,
10200220,
9,
09,
8,
,
1001001000002000,
1001001000102000,
1001001000002000,
1001001000102000,
1001001000002000,
1001001000102000,
1001001000002000,
500000000000000000000000000008000000000000000000,//66
#GOGOSTART
10211120,
10211120,
20020020,
500000000000000000000000000000000008000000000000,
100000000000000000500000000000000008000000000000,
3,
100000000000000000500000000000000008000000000000,//73
#GOGOEND
3,
,
#END

COURSE:Easy
LEVEL:4
BALLOON:16
#START
10020000,
10020000,
10020000,
10040400,
10020000,
10020000,
10020000,
10020010,
10020000,
10020000,
10020000,
10040400,
10020000,
10020000,
10020000,
40040000,
1001001000000000,
1001001000000000,
1001001000000000,
1001001000000000,
1001001000000000,
1001001000000000,
1001001000000000,
500000000000000000000000000008000000000000000000,//24
#GOGOSTART
1210,
1210,
1210,
11101000,
1210,
1210,
1210,
500000000000000000000000000008000000000000000000,
1220,
1220,
20020020,
000000500000000000000000000000000008000000000000,
100000000000000000500000000000000008000000000000,
3,
100000000000000000500000000000000008000000000000,//39
#GOGOEND
3,
11,
11,
1100,
1110,
12,
12,
1100,
1110,
12,
12,
12,
1110,
12,
12,
9,
09,
8,
,
1001001000000000,
1001001000000000,
1001001000000000,
1001001000000000,
1001001000000000,
1001001000000000,
1001001000000000,
500000000000000000000000000008000000000000000000,//66
#GOGOSTART
1220,
1220,
20020020,
000000500000000000000000000000000008000000000000,
100000000000000000500000000000000008000000000000,
3,
100000000000000000500000000000000008000000000000,//73
#GOGOEND
3,
,
#END
