//TJADB Project
TITLE:READY‼ -AC16 Chart-
TITLEJA:READY!!
SUBTITLE:--Satoru Kousaki feat. 765PRO ALLSTARS/THE iDOLM@STER 2
SUBTITLEJA:AC16譜面 「アイドルマスター」より
BPM:174
WAVE:READY!!.ogg
OFFSET:-1.615
DEMOSTART:59.538 //Shinuchi:
8160/6600/3290/2440

COURSE:Oni
LEVEL:6
BALLOON:
SCOREINIT:700,2550
SCOREDIFF:200
#START
20022002,
02202000,
20220202,
00022020,
20000222,
00000222,
00020000,
500000000000000000000000000008000000000000000000, //8
#GOGOSTART
1000201110102010,
0010201110100020,
1000201000102011,
21210102,
1000201110102010,
0010201110100020,
1000201000102011,
21210202, //16
#GOGOEND
10201120,
10201120,
10210120,
10210120,
10211120,
10211120,
4343,
4000003000302022, //24
11210120,
11210120,
500000000000000008000000000000200200200000200000,
500000000000000008000000000000200200200000200000,
11211120,
11211120,
11212020,
11222000, //32
1022202000102000,
1022101000201000,
1022202000102000,
1022101000201000,
1020102210201000,
1020102210201000,
1000100010112000,
1011201000112011,
1022201022202220,
33330430, //42
#GOGOSTART
1000201110102010,
0010201120202000,
10210120,
1000201110222020,
1000201110222020,
1000201020001011,
1011101110111010,
3344, //50
1000201110102010,
0010201120202000,
10210120,
1000201110222020,
1000201110222020,
1000201110222020,
1011101120202022,
1002, //58
1000201110102010,
0010201110100020,
1000201000102011,
21210202,
#GOGOEND
0300,
0,
0,
0,
0, //67
#END

COURSE:Hard
LEVEL:4
BALLOON:
SCOREINIT:710,3490
SCOREDIFF:215
#START
20022002,
02202000,
20220202,
00022020,
20000222,
00000222,
00020000,
500000000000000000000000000008000000000000000000, //8
#GOGOSTART
10201102,
10201102,
10210120,
20210102,
10201102,
10201102,
10210120,
500000000000000000000000000008000000000000000000, //16
#GOGOEND
10201120,
10201120,
10210120,
10210120,
10201120,
10201120,
4343,
40030300, //24
10201120,
10201120,
500000000000000000000008000000000000000000000000,
500000000000000000000008000000000000000000000000,
10211120,
10211120,
10210120,
11222000, //32
10010020,
10010020,
10010020,
10010220,
12101210,
12121202,
10101120,
12120202,
1000100020222000,
33330430, //42
#GOGOSTART
10211021,
01211020,
10210120,
10211120,
10211120,
10210120,
1011100010111000,
1011100040004000, //50
10211021,
01211020,
10210120,
10211120,
10211120,
10210120,
1011100010111000,
3, //58
10201102,
10201102,
10210120,
20210202,
#GOGOEND
0300,
0,
0,
0,
0, //67
#END

COURSE:Normal
LEVEL:2
BALLOON:15,7,7
SCOREINIT:920,7640
SCOREDIFF:370
#START
2,
2,
22,
2,
1,
1,
11,
500000000000000000000000000008000000000000000000, //8
#GOGOSTART
1110,
1110,
11,
500000000000000000000000000008000000000000000000,
1110,
1110,
11,
500000000000000000000000000008000000000000000000, //16
#GOGOEND
1100,
1100,
2200,
2200,
1102,
1102,
0303,
600000000000000000000000000008000000000000000000, //24
1102,
1102,
500000000000000000000008000000000000000000000000,
500000000000000000000008000000000000000000000000,
1111,
2222,
11,
3, //32
10010000,
10010000,
20020000,
20020000,
1122,
1122,
9,
000000000000000000000009000000000000000000000008,
0,
3300, //42
#GOGOSTART
10111000,
10111000,
33,
3012,
1012,
12,
1212,
1100, //50
10111000,
10111000,
33,
30070000,
000000008000000700000000,
000000000000008000000000,
10101110,
3, //58
1110,
1110,
11,
3333,
#GOGOEND
0300,
0,
0,
0,
0,
#END

COURSE:Easy
LEVEL:3
BALLOON:8,4,4
SCOREINIT:870,9390
SCOREDIFF:443
#START
1,
1,
11,
1,
1,
1,
11,
500000000000000000000000000008000000000000000000, //8
#GOGOSTART
11,
1110,
11,
500000000000000000000000000008000000000000000000,
11,
1110,
11,
500000000000000000000000000008000000000000000000, //16
#GOGOEND
1100,
1100,
2200,
2200,
1100,
1100,
33,
600000000000000000000000000008000000000000000000, //24
1100,
1100,
500000000000000000000008000000000000000000000000,
500000000000000000000008000000000000000000000000,
1110,
1110,
11,
3, //32
12,
1,
12,
1,
11,
1111,
9,
000000000000000000000009000000000000000000000008,
0,
3300, //42
#GOGOSTART
11,
1110,
33,
3022,
2022,
22,
1111,
1100, //50
11,
1110,
33,
30070000,
000000008000000700000000,
000000000000008000000000,
1111,
3, //58
11,
1110,
11,
600000000000000000000000000000000008000000000000, //62
#GOGOEND
0300,
0,
0,
0,
0, //67
#END
