//TJADB Project
TITLE:All Night de Indenai
TITLEJA:オールナイトdeインデナイ
SUBTITLE:--Yoshihito Yano feat. Fusshi & Funadi & Ryo
BPM:101.57
WAVE:All Night de Indenai.ogg
OFFSET:-2.400
DEMOSTART:59.664

COURSE:Oni
LEVEL:7
BALLOON:18,40,4
SCOREINIT:510
SCOREDIFF:110
#START
#BARLINEOFF
#MEASURE 12/4
000700000000000000000080,
#BARLINEON
#MEASURE 4/4
#BPMCHANGE 110
1120111010100011,
1120101110101120,
2020111020201110,
2120111020112010,
200000200000100000100100100500000000008000000100,
200000200000100100000100100500000000008000000100,
2020111020201110,
2120112120111010,
1000101122102010,
2210201120201220,
1020101020102211,
0120220210201211,
1010202010002001,
000500000000000000000000000000000000000000008000,
0001000210122030,
2011101020111010,
2000111122102210,
1000120011201021,
0122102011202021,
1000201110104030,
1110403000221040,
0010202010202121,
1012201020304000,
#GOGOSTART
1010211010102110,
1020112010201120,
1010211010102011,
0120102030211040,
1010211010102011,
0120102101201120,
2010112210201022,
1000100010003003,
#GOGOEND
0000201120201120,
2020202011201120,
1002101012101121,
1012101012111020,
1002101012101121,
1012101012112020,
1313,
11401140,
7,
0008,
3011101020111010,
2000111122102210,
1000120011201021,
0122102011202021,
1000201110104030,
1110403020221040,
0010202010202112,
100000100200200000300000400000600000000008000000,
#GOGOSTART
1010211010102110,
1020112010201120,
1010211010102011,
0120102030211040,
1010211010102011,
0120102101201120,
2010112210101022,
1000200020003004,
0021120210102101,
1202120210102101,
1202120210102101,
1102012010020120,
1022102010221070,
#BPMCHANGE 110.46
0008,
#GOGOEND
3,
#END

COURSE:Hard
LEVEL:6
BALLOON:16,26,16
SCOREINIT:620
SCOREDIFF:150
#START
#BARLINEOFF
#MEASURE 12/4
000700000000000000000080,
#BARLINEON
#MEASURE 4/4
#BPMCHANGE 110
30201120,
10201120,
01120112,
01121120,
000000100000200000100000500000000000000008000000,
000000100000200000100000500000000000000008000000,
01210121,
01211210,
10200101,
500000000000000000000000000000000000000008000000,
0010102020001001,
000000500000000000000000000000000000000008000000,
1010202000001001,
000500000000000000000000000000000000000000008000,
0001000200111030,
0011102000111020,
0000111040304030,
10101110,
1000100020202220,
10201121,
10201121,
01221212,
0222202020112000,//24
#GOGOSTART
31221122,
3010202200101000,
3010202010102022,
01104000,
3010202010102022,
01210120,
10112120,
3000300030003003,//32
#GOGOEND
,
,
1000100010001110,
0011100011101000,
10101011,
0011100011101000,
0033,
00004440,
7,
0008,
0011102000111020,
0000111040304030,
10101110,
1000100020202220,
10201121,
10201121,
01221212,
0222202020112000,//50
#GOGOSTART
31221122,
3010202200101000,
3010202010102022,
01104000,
3010202010102022,
0000111010001000,
00222020,
3000300030003003,
00201120,
10201120,
10201120,
1000200011102000,
10001007,
#BPMCHANGE 110.46
0008,//64
#GOGOEND
3,
,
,
#END

COURSE:Normal
LEVEL:4
BALLOON:14,24,14
SCOREINIT:620
SCOREDIFF:140
#START
#BARLINEOFF
#MEASURE 12/4
000700000000000000000080,
#BARLINEON
#BPMCHANGE 110
#MEASURE 4/4
30201100,
10201100,
01100110,
01101010,
100000000000100000100000500000000000000008000000,
100000000000100000100000500000000000000008000000,
11001100,
11001100,
10200101,
500000000000000000000000000000000000000008000000,
01011020,
500000000000000000000000000000000000000008000000,
01011020,
500000000000000000000000000000000000000000000008,
00000003,
01110111,
0144,
10101110,
10102220,
1212,
1212,
01101010,
11101110,//24
#GOGOSTART
30101110,
3111,
30101110,
1140,
30101110,
30110110,
10002220,
3000300030003003,//32
#GOGOEND
,
,
10101011,
10101110,
10101011,
01101110,
0033,
00004440,
7,
0008,
01110111,
0144,
10101110,
10102220,
1212,
1212,
01101010,
11101110,//50
#GOGOSTART
30101110,
3111,
30101110,
1140,
3111,
1011,
0220,
3000300030003003,
00201110,
1211,
10201110,
10201110,
10001007,
#BPMCHANGE 110.46
0008,//64
#GOGOEND
3,
,
,
#END

COURSE:Easy
LEVEL:3
BALLOON:10,20,10
SCOREINIT:590
SCOREDIFF:160
#START
#BARLINEOFF
#MEASURE 12/4
000700000000000000000080,
#BARLINEON
#BPMCHANGE 110
#MEASURE 4/4
3012,
1012,
11,
11,
100000000000000000000000500000000000000000000008,
000000000000000000000000500000000000000000000008,
0101,
0100,
1202,
500000000000000000000000000008000000000000000000,
1202,
500000000000000000000000000008000000000000000000,
1202,
500000000000000000000000000000000000000000000008,
00000003,
0101,
0122,
0101,
0122,
11,
11,
1110,
1110,//24
#GOGOSTART
3111,
13,
3111,
14,
3111,
1011,
0220,
3333,//32
#GOGOEND
,
,
1110,
1110,
1110,
1110,
1300,
2400,
7,
0008,
0101,
0122,
0101,
0122,
11,
11,
1110,
1110,//50
#GOGOSTART
3111,
11,
3111,
14,
3111,
1011,
0220,
3333,
,
1110,
11,
1110,
10001007,
#BPMCHANGE 110.46
0008,//64
#GOGOEND
3,
,
,
#END
