//TJADB Project
TITLE:Inu Hoeru
TITLEJA:犬吠える
SUBTITLE:--Makita Sports
BPM:184.44
WAVE:Inu Hoeru.ogg
OFFSET:-6.743
DEMOSTART:68.034

COURSE:Oni
LEVEL:6
BALLOON:12,22
SCOREINIT:510
SCOREDIFF:125
#START
#SCROLL 0.97
10201201,
#BPMCHANGE 176.36
#SCROLL 1.02
2000102000102220,
#BPMCHANGE 178.73
#SCROLL 1
10201201,
#BPMCHANGE 180.07
#SCROLL 0.99
2000102000102220,
#BPMCHANGE 180
#SCROLL 1
10201201,
2000102000202220,
10202201,
2000101000101110,
10202201,
2000102000202220,
10201201,
500000000000000000000000000000000008000000000000,
1000200110200010,
2000102000222020,
1000200110200010,
2000102000111010,
1000200110200010,
2000102000222020,
10201201,
7008,
1000200110201110,
2010102000201110,
1000200110201110,
2010102000111020,
1000200110201110,
2010102010111020,
1000200110201010,
0020202011102010,
1000201000111010,
1000201000111010,
1000201000111010,
1000201000111020,
1000201000111010,
11210221,
1000201000111010,
11210221,
1000201110102010,
1000201110102000,
1000201110102011,
1010201110102000,
1010201110102011,
1010201110102011,
1010201120112010,
100000000000100000500000000000000000000008000000,
3333,
600000000000000000000000000000000008000000000000,
#GOGOSTART
3030201110102010,
0010201000111010,
1000201110102010,
0010202011102010,
3030201110102010,
0010201000111010,
1000201110102010,
0010202011102010,
1010201110102010,
0010201000111010,
1000201110102010,
0010202011102010,
1010201110102010,
0010201000111010,
1000201110102010,
0010202011102010,
0010201110111011,
#GOGOEND
10210120,
10210120,
1000201011102000,
1000101110101110,
33070000,
0008,
33020202,
04040404,
11212121,
01212121,
02121212,
02121212,
02212121,
02212121,
01212121,
21210110,
1110100010201020,
1110102000201120,
1110102000102010,
1022202220101110,
10111111,
11111110,
33000000,
#END

COURSE:Hard
LEVEL:5
BALLOON:10,6
SCOREINIT:580
SCOREDIFF:120
#START
#SCROLL 0.97
10101101,
#BPMCHANGE 176.36
#SCROLL 1.02
10110110,
#BPMCHANGE 178.73
#SCROLL 1
10101101,
#BPMCHANGE 180.07
#SCROLL 0.99
500000000000000000000000000000000008000000000000,
#BPMCHANGE 180
#SCROLL 1
10101101,
10110110,
10202202,
20110110,
10202202,
20220110,
10101101,
500000000000000000000000000000000008000000000000,
10201101,
10220110,
10201101,
10220000,
10201101,
10220110,
10201101,
500000000000000000000000000000000008000000000000,
1000101110100010,
1000101000111000,
1000101110100010,
10110000,
1000101110100010,
1000101000111000,
1000101110100010,
500000000000000000000000000000000008000000000000,
10210010,
10210110,
10210010,
10010220,
10210010,
10210220,
10210010,
10110000,
10201120,
1212,
10201120,
1212,
10201120,
1212,
1111,
12120000,
3333,
500000000000000000000000000000000000000008000000,//46
#GOGOSTART
11210121,
01110220,
30301115,
000000000000000000000000000000000008000000000000,
11210121,
01110220,
30301117,
0008,
10101011,
01110220,
10201125,
000000000000000000000000000000000008000000000000,
10101111,
00101111,
10201121,
01210121,
500000000000000000000000000000000000000008000000,//63
#GOGOEND
10210120,
10210120,
10201120,
10200111,
11050000,
000000000000000008000000000000100000100000100000,
11040404,
07000080,
11210120,
11210120,
22220120,
22220120,
12210120,
12210120,
11202120,
21210010,
11201020,
10120110,
11201201,
10120110,
15000000,
000000000000000008000000000000300000300000300000,
33000000,
,
#END

COURSE:Normal
LEVEL:5
BALLOON:20,10
SCOREINIT:810
SCOREDIFF:170
#START
#SCROLL 0.97
10101100,
#BPMCHANGE 176.36
#SCROLL 1.02
10110000,
#BPMCHANGE 178.73
#SCROLL 1
10101100,
#BPMCHANGE 180.07
#SCROLL 0.99
500000000000000000000000000000000008000000000000,
#BPMCHANGE 180
#SCROLL 1
10101100,
10110000,
10101100,
10110000,
20202200,
20220000,
10101100,
500000000000000000000000000000000008000000000000,
10101100,
10110000,
10102200,
10220000,
20202200,
20220000,
10102200,
10220000,
10101100,
10110000,
10102200,
10220000,
20202200,
20220000,
10102200,
500000000000000000000000000000000008000000000000,
10010010,
10010000,
10010010,
10010000,
10020020,
10020000,
10020020,
10020000,
10101110,
1110,
10101110,
1110,
10101110,
1110,
1111,
10010000,
5,
000000000000000000000000000000000008000000000000,//46
#GOGOSTART
30110105,
000000000000000008000000000000100000100000000000,
500000000000000000000000000000000000000008000000,
,
30110105,
000000000000000008000000000000100000100000000000,
500000000000000000000000000000000000000008000000,
,
10101022,
01100110,
500000000000000000000000000000000000000008000000,
,
10102225,
000000000000000008000000000000100000100000000000,
7,
,
0008,//63
#GOGOEND
10110100,
10110000,
10101105,
000000000000000008000000000000000000100000000000,
11070000,
0008,
11020202,
500000000000000000000000000000000008000000000000,
1111,
1110,
2222,
2220,
1212,
1210,
1212,
1210,
1212,
10220000,
1212,
11010220,
5,
000000000000000008000000000000300000300000000000,
,
,
#END

COURSE:Easy
LEVEL:4
#START
#SCROLL 0.97
11,
#BPMCHANGE 176.36
#SCROLL 1.02
1110,
#BPMCHANGE 178.73
#SCROLL 1
11,
#BPMCHANGE 180.07
#SCROLL 0.99
1110,
#BPMCHANGE 180
#SCROLL 1
11,
1110,
22,
2220,
22,
2220,
11,
500000000000000000000000000008000000000000000000,
11,
1110,
11,
1,
22,
2220,
22,
2,
1110,
1,
11,
11,
1110,
1110,
1100,
500000000000000000000000000008000000000000000000,
1011,
11,
1011,
1,
1011,
11,
1011,
1,
1111,
11,
1111,
11,
1111,
11,
1111,
500000000000000000000000000000000000000000000008,
0700,
00000800,//46
#GOGOSTART
30030003,
0001,
10001001,
,
30030003,
0001,
10001001,
,
40040004,
0002,
20002002,
,
30030003,
0001,
10003003,
07000000,
00000800,//63
#GOGOEND
12,
12,
1110,
1110,
30070000,
00000800,
30050000,
000000000000000000000000000008000000000000000000,
11,
1110,
22,
2220,
22,
2220,
11,
1100,
1110,
11,
1110,
11,
1110,
1111,
3,
,
#END
