//TJADB Project
TITLE:Total Eclipse 2035 ~Shoujo no Jikuu Kaiki-nikushoku~
TITLEJA:トータル・エクリプス 2035 ~少女の時空皆既日食~
SUBTITLE:--Mitsuhiro Kaneda feat. Keiori Aihara
BPM:157
WAVE:Total Eclipse 2035 Shoujo no Jikuu Kaiki-nikushoku.ogg
OFFSET:-9.269
DEMOSTART:9.269

COURSE:Oni
LEVEL:8
BALLOON:40
SCOREINIT:530
SCOREDIFF:138
#START
#MEASURE 3/4
100120,
102120,
100210,
101210,
100210,
100020221000,
102120,
102120,
100210,
101210,
100110,
202211221122,
100210,
212120,
102020101220,
102220102010,
102002,
102022,
100022,
120202,
102202,
102021,
102220,
101122112211,
102002,
102022,
100022,
120202,
102202,
102021,
100010200220,
300040001222,
100120,
102120,
100210,
101210,
100210,
100020221000,
102120,
102120,
100210,
101210,
100110,
202211221122,
100210,
212120,
102020101220,
102220102010,
102002,
102022,
100022,
120202,
102202,
102021,
102220,
102010202211,
101011,
222,
100110,
200110,
100220,
122121,
201201,
221010221221,//64
#GOGOSTART
101020112010,
112011201022,
101020112010,
100020221221,
202010221020,
221022101011,
202010221020,
200010112112,
101020111010,
202010222020,
111020112010,
222010221020,
122010202212,
201022101020,
111020102210,
112022102220,
334,
300000404011,
101020112010,
112011201022,
101020112010,
100020221221,
202010221020,
221022101011,
202010221020,
200010112112,
101020111010,
202010222020,
111020112010,
222010221020,
122010202212,
201022101020,
111020102210,
102122102210,
111020121010,
112011202210,//100
#GOGOEND
201021,
112,
201021,
112,
100210,
112,
101021,
112,
7,
,
,
008,
#END

COURSE:Hard
LEVEL:6
BALLOON:25
SCOREINIT:530
SCOREDIFF:140
#START
#MEASURE 3/4
100120,
102120,
100210,
101210,
100210,
100210,
102120,
102120,
100210,
101210,
100110,
200220,
100210,
202,
102120,
1,
122,
122,
102,
120202,
122,
102021,
102220,
1,
122,
122,
122,
100220,
100220,
122,
303003,
340,
100120,
102120,
100210,
101210,
100210,
100210,
102120,
102120,
100210,
101210,
100110,
202220,
100210,
202,
102120,
1,
122,
122,
102,
122,
122,
102021,
102220,
1,
122,
122,
122,
100220,
100220,
102,
303003,
340,//64
#GOGOSTART
101020111010,
101020111000,
212121,
120,
202010222020,
202010222000,
121212,
500000000000000000000008000000000000,
101020111010,
201210,
101020111010,
201210,
112,
100011102000,
111020101020,
500000000000000000000000000008000000,
334,
304,
101020111010,
101020111000,
212121,
500000000000000000000008000000000000,
202010222020,
202010222000,
121212,
500000000000000000000008000000000000,
101020111010,
201210,
101020111010,
201210,
112,
100011102000,
111020101020,
500000000000000000000000000008000000,
334,
334,//100
#GOGOEND
101021,
112,
201021,
112,
100210,
112,
101021,
112,
7,
,
,
008,
,
#END

COURSE:Normal
LEVEL:5
BALLOON:20
SCOREINIT:570
SCOREDIFF:150
#START
#MEASURE 3/4
100110,
220,
100110,
220,
100110,
220,
112,
100120,
100110,
120,
100110,
120,
100110,
3,
100110,
1,
112,
1,
112,
1,
112,
112,
100011,
1,
112,
1,
112,
102,
100110,
1,
330,
440,
100110,
220,
100110,
220,
100110,
220,
112,
100120,
100110,
120,
100110,
120,
100110,
3,
100110,
1,
112,
1,
112,
1,
112,
112,
100011,
1,
112,
1,
112,
102,
100110,
1,
330,
440,//64
#GOGOSTART
111020,
111000,
111020,
111000,
111020,
111000,
102001,
1,
111011,
122,
111011,
122,
101110,
101110,
5,
000008000000000000000000000000000000,
333,
3,
222010,
222000,
222010,
222000,
222010,
222000,
201002,
2,
222022,
211,
222022,
211,
202220,
202220,
5,
000008000000000000000000000000000000,
334,
333,//100
#GOGOEND
112,
110,
112,
110,
101200,
110,
112,
110,
7,
,
,
008,
,
#END

COURSE:Easy
LEVEL:4
BALLOON:20
SCOREINIT:500
SCOREDIFF:140
#START
#MEASURE 3/4
101,
220,
101,
220,
101,
220,
110,
202,
101,
120,
101,
120,
3,
3,
101,
1,
1,
2,
101,
1,
1,
2,
101,
1,
2,
1,
202,
2,
2,
1,
3,
440,
101,
220,
101,
220,
101,
220,
110,
202,
101,
120,
101,
120,
3,
3,
101,
1,
1,
2,
101,
1,
1,
2,
101,
1,
2,
1,
202,
2,
2,
1,
3,
440,//64
#GOGOSTART
112,
110,
112,
110,
111,
210,
111,
210,
111,
120,
111,
120,
111,
112,
5,
000000000008000000000000000000000000,
333,
3,
112,
110,
112,
110,
111,
210,
111,
210,
111,
120,
111,
120,
111,
112,
5,
000000000008000000000000000000000000,
330,
440,//100
#GOGOEND
1,
,
2,
,
3,
,
4,
,
7,
,
,
008,
,
#END
