//TJADB Project
TITLE:Revenge of Meta Knight Medley
TITLEJA:メタナイトの逆襲メドレー
SUBTITLE:--Jun Ishikawa/Kirby Super Star Ultra
SUBTITLEJA:「星のカービィ ウルトラスーパーデラックス」より
BPM:165.96
WAVE:Revenge of Meta Knight Medley.ogg
OFFSET:-1.573
DEMOSTART:3.024 //shinuchi:
6120/4410/1870/1450/940

COURSE:Edit
LEVEL:10
BALLOON:25,20,30,20,10
SCOREINIT:370,990
SCOREDIFF:78
#START
0033,
3020202100202110,
2102021020002000,
1202021010201220,
1202021020020020,
0020202100202110,
2102021020002000,
1020210202020122,
500000000000000000000000000000000000000008000000,
100000100100200000100000200000002000000020000000,
1011201210112012,
100000100100200000100000200000002000000020000000,
500000000000000008000000500000000000000008000000,
112121221121,
112121221121,
111111222222111111222222,
1111102222200000, //17
#BPMCHANGE 164.95
1001002111112021,
1001002111112021,
1001002111112021,
1001002111112021,
1020110101221021,
1020120210201021,
1020210101221021,
1020120210201021,
1020110111221021,
1020120210221021,
1020210111221021,
1020110101022110,
1120110101211201,
1020110101202101,
1020110101211201,
100000200000100100000100000100100100200020002000,
100100100000000010002000100000002000000010000000,
212121,
212121,
#BPMCHANGE 179.95
#MEASURE 1/4
221100,
#MEASURE 4/4
#GOGOSTART
1011201020112211,
1011201020112212,
1011201020112211,
1011201020112212,
1011201020112211,
1011201020112212,
1011201020112211,
1011201020112212,
1011201021012011,
1011201011021021,
1011201021012011,
1011201011021021,
1011201021012011,
1011201011021021,
1011201021012011,
1011201011021021,
1011201121012011,
1011202111012012,
1011201121012011,
1011202111012012,
1011201121012011,
1011202111012012,
1011201121012011,
1011202111012010,
#SCROLL 2
3,
#SCROLL 1
0,//63
#GOGOEND
#BPMCHANGE 166.49
300000000000100010001000100000200000100000200200,
#MEASURE 2/4
10221220,
#MEASURE 4/4
300000000000100010001000100000200000100000200200,
#MEASURE 2/4
10221220,
#MEASURE 4/4
300000000000100010001000100000200000100000200200,
#MEASURE 2/4
10221220,
#MEASURE 4/4
300000101010100200100000,
#MEASURE 2/4
0,
#MEASURE 5/4
#BPMCHANGE 184.8
10111011121110001000,
#BPMCHANGE 184.94
10111011121110001000,
10111011121110001000,
10111011121110001010,
10011022212220001000,
10011022212220001000,
10011022212220001000,
10011022212220001111,
10111011121110001000,
10111011121110002010,
10111011121110001000,
10111011121110001010,//83
#GOGOSTART
1010100700,
00008,
500000000000000000000008000000200000000000000000000000000000,
500000000000000000000008000000200000000000000000000000000000,
0007000000,
#BPMCHANGE 187.41
800000000000000100000000010000000001000000000100000000010000,
#MEASURE 6/4
000001000000000100000000010000000001000000000100
#BPMCHANGE 165.3
#SCROLL 1.13
000000100000
#GOGOEND
#BPMCHANGE 184.93
#SCROLL 1
300000000000,
#MEASURE 5/4
#BPMCHANGE 184.93
10112011121110001000,
10112011121110002010,
10112011121110001000,
10112011121110001010,
#GOGOSTART
#MEASURE 10/4
#SCROLL 1.4
#BPMCHANGE 132.29
200020002000
#SCROLL 0.89
#BPMCHANGE 206.98
100010001000200020002000
#SCROLL 0.81
#BPMCHANGE 227.16
100010001000
#SCROLL 1.37
#BPMCHANGE 134.89
202020101010
#SCROLL 0.87
#BPMCHANGE 212.02
200020002000
#SCROLL 0.76
#BPMCHANGE 244.05
700000000000
#SCROLL 1
#BPMCHANGE 184.94
000000000000000000000000000000000000, //95
#MEASURE 5/4
000000000000000000000000000000000000000000000000080000000000, //96
#MEASURE 10/4
200002000020001000100100
#SCROLL 0.89
#BPMCHANGE 208.91
200200200100100100200200100100200200200100100100200200100100
#SCROLL 0.85
#BPMCHANGE 216.46
200020001000
#SCROLL 1.36
#BPMCHANGE 136.01
100010000010000000000000, //97
#MEASURE 5/4
#SCROLL 1
#BPMCHANGE 184.94
200002000020001000100100200200200200100100100100200200100100, //98
200200100100200200200100100010000200002000010000100000700000, //99
00008, //100
#MEASURE 10/4
#SCROLL 1.17
#BPMCHANGE 157.99
200002000200
#SCROLL 0.8
#BPMCHANGE 232.27
200020002000
#SCROLL 0.72
#BPMCHANGE 258.4
200020002000
#SCROLL 0.67
#BPMCHANGE 275.63
200020002000
#SCROLL 1.02
#BPMCHANGE 180.94
200002000200
#SCROLL 1.37
#BPMCHANGE 135.33
202020202020
#BPMCHANGE 135.11
202000700000
#SCROLL 0.89
#BPMCHANGE 207.97
000000000000
#SCROLL 1
#BPMCHANGE 184.94
000000000000800000000000, //101
#MEASURE 4/4
#SCROLL 2
3,
#GOGOEND
#BARLINEOFF
#MEASURE 9/8
#SCROLL 1
0,
#MEASURE 4/4
#BPMCHANGE 152.08
0,
0,
0,
0, //107
#END

COURSE:Oni
LEVEL:7
BALLOON:15,13,25
SCOREINIT:460,1510
SCOREDIFF:110
#START
0033,
3020201100102220,
1102011020002000,
1102011010201020,
500000000000000000000000000000000000000000000008,
0020201100102220,
1102011020002000,
1020220101010100,
500000000000000000000000000000000000000008000000, //9
100200202020,
1212,
100200202020,
500000000000000008000000500000000000000008000000,
111222,
111222,
500000000000000000000000000000000000000008000000,
1111102222200000, //17
#BPMCHANGE 164.95
1001000011112000,
1001000011112000,
1001000011112000,
1001000011112000,
0020110100221020,
0020110110201020,
0020110100221020,
0020110110201020, //25
0020110100221020,
0020110110201020,
0020110100221020,
0020110101022010,
0020110100201100,
0020110100102200,
0020110100201100,
000000200000100100000100000000100000200020002000, //33
100100100000000010001000100000001000000010000000,
222111,
222111,
#BPMCHANGE 179.95
#MEASURE 1/4
0, //37
#MEASURE 4/4
#GOGOSTART
1011101000112000,
1011101000112000,
1011101000112000,
1011101000222000,
1011101000112000,
1011101000112000,
1011101000112000,
1011101000222000,
1011201000112000,
1011201000112000,
1011201000112000,
1011201000222000,
1011201000112000,
1011201000112000,
1011201000112000,
1011201000222000,
1011201000112010,
1011201000222010,
1011201000112010,
1011201000222010,
1011201000112010,
1011201000222010,
1011201000112010,
1011201000222010,
#SCROLL 2
3,
#SCROLL 1
0,//63
#GOGOEND
#BPMCHANGE 166.49
300111100100,
#MEASURE 2/4
20222000,
#MEASURE 4/4
300111100100,
#MEASURE 2/4
20222000,
#MEASURE 4/4
300111100100,
#MEASURE 2/4
20222000,
#MEASURE 4/4
300111100100,
#MEASURE 2/4
0, //71
#MEASURE 5/4
#BPMCHANGE 184.8
11111010002000001000,
#BPMCHANGE 184.94
11111010002000001000,
11111010002000001000,
11111010002000001010,
10000022222020001000,
10000022222020001000,
10000022222020001000,
10000022222020001000,
11111010002000001000,
11111010002000002010,
11111010002000001000,
11111010002000001010, //83
#GOGOSTART
1010100700,
00008,
500000000000000000000008000000200000000000000000000000000000,
500000000000000000000008000000200000000000000000000000000000,
0007000000,
#BPMCHANGE 187.41
800000000000000100000000010000000001000000000100000000010000,
#MEASURE 6/4
000001000000000100000000010000000001000000000100
#BPMCHANGE 165.3
#SCROLL 1.13
000000100000
#GOGOEND
#BPMCHANGE 184.93
#SCROLL 1
300000000000, //90
#MEASURE 5/4
#BPMCHANGE 184.93
11111010002000001000,
11111010002000002010,
11111010002000001000,
11111010002000001010,
#GOGOSTART
#MEASURE 10/4
#SCROLL 1.4
#BPMCHANGE 132.29
200000200000
#SCROLL 0.89
#BPMCHANGE 206.98
020000000000000000000100
#SCROLL 0.81
#BPMCHANGE 227.16
000000000000
#SCROLL 1.37
#BPMCHANGE 134.89
100000002000
#SCROLL 0.87
#BPMCHANGE 212.02
000020000000
#SCROLL 0.76
#BPMCHANGE 244.05
000200000000
#SCROLL 1
#BPMCHANGE 184.94
000000000000100000000000100000000000, //95
#MEASURE 5/4
20020020000010001000, //96
#MEASURE 10/4
200000000200000000200000
#SCROLL 0.89
#BPMCHANGE 208.91
000000000000010000000000000100000000000020000000002000000000
#SCROLL 0.85
#BPMCHANGE 216.46
200000000000
#SCROLL 1.36
#BPMCHANGE 136.01
000000100000000100000000, //97
#MEASURE 5/4
#SCROLL 1
#BPMCHANGE 184.94
20020020000010001000, //98
20020020000010001000, //99
20020020000010001000, //100
#MEASURE 10/4
#SCROLL 1.17
#BPMCHANGE 157.99
700000000000
#SCROLL 0.8
#BPMCHANGE 232.27
000000000000
#SCROLL 0.72
#BPMCHANGE 258.4
000000000000
#SCROLL 0.67
#BPMCHANGE 275.63
000000000000
#SCROLL 1.02
#BPMCHANGE 180.94
000000000000
#SCROLL 1.37
#BPMCHANGE 135.33
000000000000
#BPMCHANGE 135.11
000000000000
#SCROLL 0.89
#BPMCHANGE 207.97
000000000000
#SCROLL 1
#BPMCHANGE 184.94
000000000000080000000000, //101
#MEASURE 4/4
#SCROLL 2
3,
#GOGOEND
#BARLINEOFF
#MEASURE 9/8
#SCROLL 1
0,
#MEASURE 4/4
#BPMCHANGE 152.08
0,
0,
0,
0, //107
#END

COURSE:Hard
LEVEL:7
BALLOON:10,7,17
SCOREINIT:510,1970
SCOREDIFF:125
#START
0033,
3010201100102000,
1101011020002000,
1101011020202000,
500000000000000000000000000000000008000000000000,
1010201100102000,
1101011020002000,
1010200101010100,
500000000000000000000000000000000008000000000000, //9
100200202020,
1212,
100200202020,
11,
111100,
111100,
500000000000000000000000000000000000000000000008,
0, //17
#BPMCHANGE 164.95
1001000010111000,
1001000010111000,
2002000010111000,
2002000010111000,
0010110100000000,
0010110110200000,
0010110100000000,
0010110110200000, //25
0020110100000000,
0020110110200000,
0020110100000000,
000000200000100100000100000100000500000000008000,
0010110100102200,
0010110100102200,
0020220200101100,
0020220200101100, //33
100100100000000010001000100000001000000010000000,
100111,
100222,
#BPMCHANGE 179.95
#MEASURE 1/4
0, //37
#MEASURE 4/4
#GOGOSTART
1000001000111000,
1000001000111000,
1000001000111000,
1000001000222000,
1000001000111000,
1000001000111000,
1000001000111000,
1000001000222000,
1000001000112000,
1000001000112000,
1000001000112000,
1000001000222000,
1000001000112000,
1000001000112000,
1000001000112000,
1000001000222000,
2000002000111000,
2000002000111000,
2000002000111000,
2000002000112000,
2000002000111000,
2000002000111000,
2000002000111000,
2000002000112000,
#SCROLL 2
3,
#SCROLL 1
0,//63
#GOGOEND
#BPMCHANGE 166.49
300111100100,
#MEASURE 2/4
2220,
#MEASURE 4/4
300111100100,
#MEASURE 2/4
2220,
#MEASURE 4/4
300111100100,
#MEASURE 2/4
2220,
#MEASURE 4/4
300111100100,
#MEASURE 2/4
0, //71
#MEASURE 5/4
#BPMCHANGE 184.8
10111010002000001000,
#BPMCHANGE 184.94
10111010002000001000,
10111010002000001000,
10111010002000001010,
10000022202020001000,
10000022202020001000,
10000022202020001000,
10000022202020001000,
30111010002000001000,
10111010002000000030,
30111010002000001000,
10111010002000001010, //83
#GOGOSTART
1010100700,
00008,
500000000000000000000008000000200000000000000000000000000000,
500000000000000000000008000000200000000000000000000000000000,
0007000000,
#BPMCHANGE 187.41
800000000000000100000000010000000001000000000100000000010000,
#MEASURE 6/4
000001000000000100000000010000000001000000000100
#BPMCHANGE 165.3
#SCROLL 1.13
000000100000
#GOGOEND
#BPMCHANGE 184.93
#SCROLL 1
300000000000, //90
#MEASURE 5/4
#BPMCHANGE 184.93
10111010002000001000,
10111010002000000030,
30111010002000001000,
10111010002000001010,
#GOGOSTART
#MEASURE 10/4
#SCROLL 1.4
#BPMCHANGE 132.29
200000200000
#SCROLL 0.89
#BPMCHANGE 206.98
020000000000000000000100
#SCROLL 0.81
#BPMCHANGE 227.16
000000000000
#SCROLL 1.37
#BPMCHANGE 134.89
100000002000
#SCROLL 0.87
#BPMCHANGE 212.02
000020000000
#SCROLL 0.76
#BPMCHANGE 244.05
000200000000
#SCROLL 1
#BPMCHANGE 184.94
000000000000100000000000100000000000, //95
#MEASURE 5/4
20020020000010001000, //96
#MEASURE 10/4
200000000200000000200000
#SCROLL 0.89
#BPMCHANGE 208.91
000000000000010000000000000100000000000020000000002000000000
#SCROLL 0.85
#BPMCHANGE 216.46
200000000000
#SCROLL 1.36
#BPMCHANGE 136.01
000000100000000100000000, //97
#MEASURE 5/4
#SCROLL 1
#BPMCHANGE 184.94
20020020000010001000, //98
20020020000010001000, //99
20020020000010001000, //100
#MEASURE 10/4
#SCROLL 1.17
#BPMCHANGE 157.99
700000000000
#SCROLL 0.8
#BPMCHANGE 232.27
000000000000
#SCROLL 0.72
#BPMCHANGE 258.4
000000000000
#SCROLL 0.67
#BPMCHANGE 275.63
000000000000
#SCROLL 1.02
#BPMCHANGE 180.94
000000000000
#SCROLL 1.37
#BPMCHANGE 135.33
000000000000
#BPMCHANGE 135.11
000000000000
#SCROLL 0.89
#BPMCHANGE 207.97
000000000000
#SCROLL 1
#BPMCHANGE 184.94
000000000000080000000000, //101
#MEASURE 4/4
#SCROLL 2
3,
#GOGOEND
#BARLINEOFF
#MEASURE 9/8
#SCROLL 1
0,
#MEASURE 4/4
#BPMCHANGE 152.08
0,
0,
0,
0, //107
#END

COURSE:Normal
LEVEL:4
BALLOON:8,12,22,13,22,15
SCOREINIT:810,5040
SCOREDIFF:235
#START
0033,
31,
1022,
11,
500000000000000000000000000000000008000000000000,
11,
1022,
11,
500000000000000000000000000000000008000000000000, //9
11,
1110,
22,
11,
12,
12,
500000000000000000000000000000000000000000000008,
0, //17
#BPMCHANGE 164.95
1,
1,
2,
2,
11,
1,
22,
2, //25
11,
11,
22,
22,
1110,
1110,
2220,
2220, //33
12,
12,
12,
#BPMCHANGE 179.95
#MEASURE 1/4
0, //37
#MEASURE 4/4
#GOGOSTART
10010000,
10010000,
10010000,
10010000,
20020000,
20020000,
20020000,
20020000,
10010000,
10010000,
10010000,
10010000,
20020000,
20020000,
20020000,
20020000,
10010000,
10010000,
20020000,
20020000,
10010000,
10010000,
20020000,
20020000,
#SCROLL 1.67
3,
#SCROLL 1
0,//63
#GOGOEND
#BPMCHANGE 166.49
32,
#MEASURE 2/4
2220,
#MEASURE 4/4
32,
#MEASURE 2/4
2220,
#MEASURE 4/4
32,
#MEASURE 2/4
2220,
#MEASURE 4/4
32,
#MEASURE 2/4
0, //71
#MEASURE 5/4
#BPMCHANGE 184.8
1000020010,
#BPMCHANGE 184.94
1000020010,
1000020010,
1000020011,
1002002010,
1002002010,
1002002010,
1002002030,
3000020010,
1000020003,
3000020010,
1000020011, //83
#GOGOSTART
1010100700,
00008,
12,
12,
0001000000,
#BPMCHANGE 187.41
00000700000000000000,
#MEASURE 6/4
0000
#BPMCHANGE 165.3
#SCROLL 1.13
8
#GOGOEND
#BPMCHANGE 184.93
#SCROLL 1
3, //90
#MEASURE 5/4
#BPMCHANGE 184.93
3000020010,
1000020003,
3000020010,
1000020011,
#GOGOSTART
#MEASURE 10/4
#SCROLL 1.4
#BPMCHANGE 132.29
7
#SCROLL 0.89
#BPMCHANGE 206.98
00
#SCROLL 0.81
#BPMCHANGE 227.16
0
#SCROLL 1.37
#BPMCHANGE 134.89
0
#SCROLL 0.87
#BPMCHANGE 212.02
0
#SCROLL 0.76
#BPMCHANGE 244.05
0
#SCROLL 1
#BPMCHANGE 184.94
000, //95
#MEASURE 5/4
00008, //96
#MEASURE 10/4
70000000
#SCROLL 0.89
#BPMCHANGE 208.91
00000000000000000000
#SCROLL 0.85
#BPMCHANGE 216.46
0000
#SCROLL 1.36
#BPMCHANGE 136.01
00000800, //97
#MEASURE 5/4
#SCROLL 1
#BPMCHANGE 184.94
7, //98
0, //99
00008, //100
#MEASURE 10/4
#SCROLL 1.17
#BPMCHANGE 157.99
700000000000
#SCROLL 0.8
#BPMCHANGE 232.27
000000000000
#SCROLL 0.72
#BPMCHANGE 258.4
000000000000
#SCROLL 0.67
#BPMCHANGE 275.63
000000000000
#SCROLL 1.02
#BPMCHANGE 180.94
000000000000
#SCROLL 1.37
#BPMCHANGE 135.33
000000000000
#BPMCHANGE 135.11
000000000000
#SCROLL 0.89
#BPMCHANGE 207.97
000000000000
#SCROLL 1
#BPMCHANGE 184.94
000000000000080000000000, //101
#MEASURE 4/4
#SCROLL 1.67
3,
#GOGOEND
#BARLINEOFF
#MEASURE 9/8
#SCROLL 1
0,
#MEASURE 4/4
#BPMCHANGE 152.08
0,
0,
0,
0, //107
#END

COURSE:Easy
LEVEL:3
BALLOON:6,7,15,8,15,8
SCOREINIT:680,7190
SCOREDIFF:218
#START
0033,
3,
0011,
1,
500000000000000000000000000000000000000000000008,
0,
0011,
1,
500000000000000000000000000000000000000000000008, //9
0,
11,
0,
11,
02,
02,
500000000000000000000000000000000000000000000008,
0, //17
#BPMCHANGE 164.95
1,
1,
2,
2,
1,
1,
2,
2, //25
1,
1,
2,
2,
11,
1,
22,
2, //33
11,
11,
1,
#BPMCHANGE 179.95
#MEASURE 1/4
0, //37
#MEASURE 4/4
#GOGOSTART
10010000,
10010000,
10010000,
10010000,
20020000,
20020000,
20020000,
20020000,
10010000,
10010000,
10010000,
10010000,
20020000,
20020000,
20020000,
20020000,
10010000,
10010000,
20020000,
20020000,
10010000,
10010000,
20020000,
20020000,
#SCROLL 1.67
3,
#SCROLL 1
0,//63
#GOGOEND
#BPMCHANGE 166.49
3,
#MEASURE 2/4
11,
#MEASURE 4/4
3,
#MEASURE 2/4
11,
#MEASURE 4/4
3,
#MEASURE 2/4
11,
#MEASURE 4/4
3,
#MEASURE 2/4
0, //71
#MEASURE 5/4
#BPMCHANGE 184.8
10001,
#BPMCHANGE 184.94
10001,
10001,
10001,
10001,
10001,
10001,
10003,
30001,
1000000003,
30001,
10001, //83
#GOGOSTART
1010100700,
00008,
12,
12,
0001000000,
#BPMCHANGE 187.41
00000700000000000000,
#MEASURE 6/4
0000
#BPMCHANGE 165.3
#SCROLL 1.13
8
#GOGOEND
#BPMCHANGE 184.93
#SCROLL 1
3, //90
#MEASURE 5/4
#BPMCHANGE 184.93
30001,
1000000003,
30001,
1,
#GOGOSTART
#MEASURE 10/4
#SCROLL 1.4
#BPMCHANGE 132.29
7
#SCROLL 0.89
#BPMCHANGE 206.98
00
#SCROLL 0.81
#BPMCHANGE 227.16
0
#SCROLL 1.37
#BPMCHANGE 134.89
0
#SCROLL 0.87
#BPMCHANGE 212.02
0
#SCROLL 0.76
#BPMCHANGE 244.05
0
#SCROLL 1
#BPMCHANGE 184.94
000, //95
#MEASURE 5/4
00008, //96
#MEASURE 10/4
70000000
#SCROLL 0.89
#BPMCHANGE 208.91
00000000000000000000
#SCROLL 0.85
#BPMCHANGE 216.46
0000
#SCROLL 1.36
#BPMCHANGE 136.01
00000800, //97
#MEASURE 5/4
#SCROLL 1
#BPMCHANGE 184.94
7, //98
0, //99
00008, //100
#MEASURE 10/4
#SCROLL 1.17
#BPMCHANGE 157.99
700000000000
#SCROLL 0.8
#BPMCHANGE 232.27
000000000000
#SCROLL 0.72
#BPMCHANGE 258.4
000000000000
#SCROLL 0.67
#BPMCHANGE 275.63
000000000000
#SCROLL 1.02
#BPMCHANGE 180.94
000000000000
#SCROLL 1.37
#BPMCHANGE 135.33
000000000000
#BPMCHANGE 135.11
000000000000
#SCROLL 0.89
#BPMCHANGE 207.97
000000000000
#SCROLL 1
#BPMCHANGE 184.94
000000000000080000000000, //101
#MEASURE 4/4
#SCROLL 1.67
3,
#GOGOEND
#BARLINEOFF
#MEASURE 9/8
#SCROLL 1
0,
#MEASURE 4/4
#BPMCHANGE 152.08
0,
0,
0,
0, //107
#END
