//TJADB Project
TITLE:The Legend of Zelda Breath of the Wild Medley
TITLEJA:ゼルダの伝説 ブレス オブ ザ ワイルド メドレー
SUBTITLE:--Manaka Kataoka/The Legend of Zelda Breath of the Wild
SUBTITLEJA:
BPM:94
WAVE:The Legend of Zelda Breath of the Wild Medley.ogg
OFFSET:-4.441
DEMOSTART:40.432 //Shinuchi:
8140/6430/3160/1970

COURSE:Oni
LEVEL:8
BALLOON:8,35,35,13
SCOREINIT:690,2090
SCOREDIFF:170
#START
#MEASURE 3/4
100220,
122,
102,
#MEASURE 5/4
100
#BPMCHANGE 94.79
#SCROLL 0.99
00,
#MEASURE 3/4
#BPMCHANGE 94
#SCROLL 1
200210,
221,
202,
#MEASURE 5/4
000000
#BPMCHANGE 93
#SCROLL 1.01
0022, //8
#MEASURE 3/4
#BPMCHANGE 94
#SCROLL 1
122000,
221020,
200000100000500000000008000000200000,
700812,
500000000000000008000000100000200000,
500000000000000008000000100000200000,
060000,
#MEASURE 6/4
000000000000000000000000000000000008
#BPMCHANGE 130.253
#SCROLL 0.99
000000000000000000000000000000000000, //16
#MEASURE 3/4
#BPMCHANGE 130
#SCROLL 1
0,
#MEASURE 6/4
100100000200000000000000000000000000000000100100000200000100000000202020,
100100222100222100100000200100000000,
100100000200000000000000000000000000000000100100000200000100000000202020,
100100222100222100100000200100000000,
100100000200000000101010200000100000000000100100000200000100000000200000,
000100000000202020100000202020100000100000000000100000200000100100000200, //23
000000101010200000101010200000100100000200000100000000200000100000200100,
000000000000202020100000202020100000100000000000200000100100000200000100,
001002000000000000001102,
#MEASURE 3/4
#BPMCHANGE 124.8
#SCROLL 1.04
000000112020, //27
#MEASURE 6/4
#BPMCHANGE 130
#SCROLL 1
#GOGOSTART
120120100011200011012010,
002120021010002120001101,
201000102101201000112000,
111120100010200210100011,
200011112010001020022010,
#MEASURE 5/4
000000101010200000000000200200200200100100200200100200100000,
#GOGOEND
#BARLINEOFF
#BPMCHANGE 184
00000000000000002222, //34
#BARLINEON
#MEASURE 3/4
101110100010,
101110101110,
101110100010,
101110101110,
101110100010,
102210102210,
101110100010,
102210102210, //42
100120201111,
221122121120,
5,
000000000000000008000000000000000000,
100120201111,
221122121120,
500000000000000000000000000008000000,
34, //50
37,
0,
0,
000084,
37,
0,
0,
008, //58
111010200010,
111010111010,
111010200010,
111010111010,
221010200010,
221010200010,
221010200010,
221122112220, //66
#GOGOSTART
300000001,
#BARLINEOFF
#SCROLL 1.03
100000001,
#SCROLL 1.07
200000001,
#SCROLL 1.1
100000001,
#SCROLL 1.13
200000001,
#SCROLL 1.16
100000001,
#SCROLL 1.19
200000001,
#SCROLL 1.22
111, //74
#BARLINEON
300000001,
#BARLINEOFF
#SCROLL 1.25
100000001,
#SCROLL 1.28
200000001,
#SCROLL 1.31
100000001,
#SCROLL 1.34
200001100,
#SCROLL 1.37
001200001,
100000000000000000001000200000100100,
#BARLINEON
201120112011, //82
211120001120,
001121112000,
112000112111,
200000000000100100100100202020202020, //86
#GOGOEND
#MEASURE 6/4
#BPMCHANGE 145.32
#SCROLL 1.73
10
#BPMCHANGE 130.45
#SCROLL 1
0,
#MEASURE 4/4
#BPMCHANGE 140
300221700000,
0800,
0, //90
#END

COURSE:Hard
LEVEL:6
BALLOON:5,12,25,25,4,11
SCOREINIT:840,3530
SCOREDIFF:223
#START
#MEASURE 3/4
100220,
112,
102,
#MEASURE 5/4
200
#BPMCHANGE 94.79
#SCROLL 0.99
00,
#MEASURE 3/4
#BPMCHANGE 94
#SCROLL 1
100220,
112,
102,
#MEASURE 5/4
000000
#BPMCHANGE 93
#SCROLL 1.01
0011, //8
#MEASURE 3/4
#BPMCHANGE 94
#SCROLL 1
221000,
221010,
200000200000500000000008000000200000,
700812,
500000000000000008000000100000200000,
500000000000000008000000100000200000,
060000,
#MEASURE 6/4
000000000000000000000000000000000008
#BPMCHANGE 130.253
#SCROLL 0.99
000000000000000000000000000000000000, //16
#MEASURE 3/4
#BPMCHANGE 130
#SCROLL 1
0,
#MEASURE 6/4
110100000000001101010000,
000022202220000000000000,
110100000000001101010000,
000022202220000000000000,
110100000000001101010010,
010022202220000000001101,
000000000011010100101011,
000022202220000000110101,
001002000000000000001101,
#MEASURE 3/4
#BPMCHANGE 124.8
#SCROLL 1.04
0, //27
#MEASURE 6/4
#BPMCHANGE 130
#SCROLL 1
#GOGOSTART
100020100010200022202020,
001020002010001020002220,
220120210120,
222020200010200020100010,
200022202020001020002010,
#MEASURE 5/4
0120700000,
#GOGOEND
#BARLINEOFF
#BPMCHANGE 184
#SCROLL 0.75
8, //34
#BARLINEON
#MEASURE 3/4
11,
101111,
11,
101111,
11,
101111,
11,
101111, //42
102,
102222,
5,
000000000000000008000000000000000000,
102,
102222,
500000000000000000000008000000000000,
34, //50
37,
0,
0,
000082,
27,
0,
0,
008, //58
111201,
111,
111201,
111,
111201,
111201,
111201,
700008, //66
#GOGOSTART
100000001,
#BARLINEOFF
#SCROLL 0.78
100000001,
#SCROLL 0.81
100000001,
#SCROLL 0.84
100000001,
#SCROLL 0.87
100000001,
#SCROLL 0.9
100000001,
#SCROLL 0.93
100000001,
#SCROLL 0.96
1, //74
#BARLINEON
300000001,
#BARLINEOFF
#SCROLL 0.99
100000001,
#SCROLL 1.02
100000001,
#SCROLL 1.05
100000001,
#SCROLL 1.08
100001100,
#SCROLL 1.11
001100001,
100001100,
212, //82
#BARLINEON
303004,
033,
040030,
343, //86
#GOGOEND
#MEASURE 6/4
#BPMCHANGE 145.32
#SCROLL 1.41
30
#BPMCHANGE 130.45
#SCROLL 1
0,
#MEASURE 4/4
#BPMCHANGE 140
300222700000,
0800,
0, //90
#END

COURSE:Normal
LEVEL:5
BALLOON:8,19,19,3,30,8
SCOREINIT:1290,7050
SCOREDIFF:475
#START
#MEASURE 3/4
100110,
111,
002,
#MEASURE 5/4
200
#BPMCHANGE 94.79
#SCROLL 0.99
00,
#MEASURE 3/4
#BPMCHANGE 94
#SCROLL 1
100110,
111,
102,
#MEASURE 5/4
000
#BPMCHANGE 93
#SCROLL 1.01
00, //8
#MEASURE 3/4
#BPMCHANGE 94
#SCROLL 1
110,
110,
101002,
2,
500000000000000000000008000000000000,
500000000000000000000008000000000000,
060000,
#MEASURE 6/4
000000000000000000000000000000000008
#BPMCHANGE 130.253
#SCROLL 0.99
000000000000000000000000000000000000, //16
#MEASURE 3/4
#BPMCHANGE 130
#SCROLL 1
0,
#MEASURE 6/4
100100000000001000000000,
022000,
100100000000001000000000,
022000,
100100000000001001000000,
000020002000000000001001, //23
000000000010010000000000,
000020002000000000100100,
000000000000000000001001,
#MEASURE 3/4
#BPMCHANGE 124.8
#SCROLL 1.04
0, //27
#MEASURE 6/4
#BPMCHANGE 130
#SCROLL 1
#GOGOSTART
101101100000,
001011011000,
000020220220,
000000202202,
200000001011,
#MEASURE 5/4
0220700000,
#GOGOEND
#BARLINEOFF
#MEASURE 5/4
#BPMCHANGE 184
#SCROLL 0.75
8, //34
#BARLINEON
#MEASURE 3/4
11,
1,
11,
1,
11,
1,
11,
1, //42
1,
111,
2,
0,
1,
111,
2,
3, //50
37,
0,
0,
008,
47,
0,
0,
008, //58
11,
101110,
11,
101110,
12,
12,
12,
700000000000000000000000000008000000, //66
#GOGOSTART
2,
2,
2,
2,
2,
2,
2,
2, //74
1,
2,
1,
2,
102,
010,
201,
212, //82
9,
0,
0,
9, //86
#GOGOEND
#MEASURE 6/4
#BPMCHANGE 145.32
#SCROLL 0.94
80
#BPMCHANGE 130.45
#SCROLL 1
0,
#MEASURE 4/4
#BPMCHANGE 140
3370,
0800,
0, //90
#END

COURSE:Easy
LEVEL:4
BALLOON:40,5,12,12,20,5
SCOREINIT:970,11260
SCOREDIFF:550
#START
#MEASURE 3/4
1,
111,
001,
#MEASURE 5/4
100
#BPMCHANGE 94.79
#SCROLL 0.99
00,
#MEASURE 3/4
#BPMCHANGE 94
#SCROLL 1
1,
111,
102,
#MEASURE 5/4
000
#BPMCHANGE 93
#SCROLL 1.01
00, //8
#MEASURE 3/4
#BPMCHANGE 94
#SCROLL 1
1,
1,
110,
1,
7,
0,
0,
#MEASURE 6/4
0
#BPMCHANGE 130.253
#SCROLL 0.99
8, //16
#MEASURE 3/4
#BPMCHANGE 130
#SCROLL 1
0,
#MEASURE 6/4
300000030000,
011000,
300000030000,
011000,
300000030000,
011003, //23
000003000000,
001010000300,
0,
#MEASURE 3/4
#BPMCHANGE 124.8
#SCROLL 1.04
0, //27
#MEASURE 6/4
#BPMCHANGE 130
#SCROLL 1
#GOGOSTART
1110,
001001001000,
000010010010,
0011,
100000001001,
#MEASURE 5/4
01700,
#GOGOEND
#BARLINEOFF
#BPMCHANGE 184
#SCROLL 0.75
8, //34
#BARLINEON
#MEASURE 3/4
1,
0,
1,
0,
1,
0,
1,
0, //42
1,
1,
2,
0,
1,
1,
2,
3, //50
37,
0,
0,
008,
37,
0,
0,
008, //58
1,
11,
1,
11,
3,
3,
3,
3, //66
#GOGOSTART
2,
0,
2,
0,
2,
0,
2,
0, //74
3,
3,
3,
3,
303,
030,
303,
030,
9,
0,
0,
9, //86
#GOGOEND
#MEASURE 6/4
#BPMCHANGE 145.32
#SCROLL 0.94
80
#BPMCHANGE 130.45
#SCROLL 1
0,
#MEASURE 4/4
#BPMCHANGE 140
3370,
0800,
0, //90
#END
