//TJADB Project
TITLE:Kiramekirari -New Audio/Chart-
TITLEJA:キラメキラリ
SUBTITLE:--Satoru Kousaki feat. 765PRO ALLSTARS/THE iDOLM@STER SP
SUBTITLEJA:新音源・譜面 「アイドルマスター」より
BPM:180
WAVE:Kiramekirari -765PRO ALLSTARS Version-.ogg
OFFSET:-1.628
DEMOSTART:55.944

COURSE:Edit
LEVEL:9
BALLOON:12
SCOREINIT:450,1350
SCOREDIFF:118
#START
11001100,
11001100,
11001101,
03303040,//4
12
#GOGOSTART
12
#GOGOEND
12
#GOGOSTART
12,
#GOGOEND
1020
#GOGOSTART
1020
#GOGOEND
1020
#GOGOSTART
1022,
#GOGOEND
12
#GOGOSTART
12
#GOGOEND
12
#GOGOSTART
12,
#GOGOEND
1020
#GOGOSTART
1111
#GOGOEND
1000
#GOGOSTART
4000, //8
#GOGOEND
1020102011201020,
1020102011201000,
1020102011201110,
2011102011102000,
1020102011201020,
1020102011201000,
1020102011201110,
2011102011102000, //16
1020
#GOGOSTART
1020
#GOGOEND
1020
#GOGOSTART
1022,
#GOGOEND
1020
#GOGOSTART
1020
#GOGOEND
1020
#GOGOSTART
1022,
#GOGOEND
1020
#GOGOSTART
1020
#GOGOEND
1022
#GOGOSTART
1022,
#GOGOEND
1020
#GOGOSTART
1111
#GOGOEND
1010
#GOGOSTART
2000, //20
#GOGOEND
1020002000222020,
1020002022202000,
1020002000222020,
1022202010222000,
1010002000222020,
1010002022202000,
1010002000222020,
1012202012222000,
12121210,
1020102010121000, //30
10010220,
1122,
10010220,
1122,
1011200010112000,
1011201010112000,
7000000000000800, //37
2020202011101110,
2020202011111000,
2220222011111000,
1334, //41
#GOGOSTART
1011202010112020,
1011201110404000,
1022102210221020,
1022102110101000,
1011202010112020,
1011201110001000,
1022102210221020,
3330, //49
1011202010112020,
1011201110404000,
1022102210221020,
1022102110101000,
1022102010221020,
1110001022200020,
1111100011111000,
32323000, //57
#GOGOEND
10101012,
10121012,
12121012,
12121212,
1020102010221020,
1022102010221020,
1022102012221020,
1222102012221020,
1222102212221020,
1222122212221040, //67
3,
33030020,
33,
3000300022222000,
30020300,
10020020,
1011100020222000,
3330, //75
#GOGOSTART
1011202010112020,
1011201110404000,
1011201120112020,
1022102210203020,
2022101020221010,
2022102210101000,
1111100022222000,
32323040, //83
1111100011211000,
1212100012221000,
1222200022222000,
33303000, //87
#GOGOEND
2220,
2220,
2220,
24,
0, //92
#END

COURSE:Oni
LEVEL:9
BALLOON:
SCOREINIT:430,1300
SCOREDIFF:113
#START
500000000008000000000000500000000008000000000000,
500000000008000000000000500000000008000000000000,
500000000008000000000000500000000000000000000000,
000000000000000000000000000008000000000000000000, //4
1120
#GOGOSTART
3000
#GOGOEND
1120
#GOGOSTART
3022,
#GOGOEND
1120
#GOGOSTART
3022
#GOGOEND
1120
#GOGOSTART
3000,
#GOGOEND
1120
#GOGOSTART
3000
#GOGOEND
1120
#GOGOSTART
3022,
#GOGOEND
1120
#GOGOSTART
3022
#GOGOEND
1120
#GOGOSTART
3000, //8
#GOGOEND
1020102010201012,
1022102010201022,
1020102010201012,
1022102010112000,
1020102010201012,
1022102010201022,
1020102010201012,
1022102011112000, //16
1120
#GOGOSTART
3000
#GOGOEND
1120
#GOGOSTART
3022,
#GOGOEND
1120
#GOGOSTART
3022
#GOGOEND
1120
#GOGOSTART
3000,
#GOGOEND
1120
#GOGOSTART
3000
#GOGOEND
1120
#GOGOSTART
3022,
#GOGOEND
1120
#GOGOSTART
3022
#GOGOEND
1120
#GOGOSTART
3000, //20
#GOGOEND
20202022,
02022022,
20220002,
0020202022202000,
10201121,
0010201110102022,
1000201000102012,
2210200040004000,
1020102010201012,
1022102010222020, //30
11210140,
11212140,
1010202210104022,
11210141,
1120201011202010,
0011201012202060,
000000000000000000000000000000000008000000000000, //37
11222211,
200200200200200200222222,
11222211,
#SCROLL 1.5
3
#SCROLL 2
3
#SCROLL 3
4
#SCROLL 1
0,//41
#GOGOSTART
1120102011201020,
1120201000404000,
1120102011201020,
1220201040004000,
1120102011201020,
1120201040400040,
1110222011102220,
1000100010222020, //49
1120102011201020,
1120201000404000,
1120102011201020,
1220201040004000,
1120102011201020,
1120201040400040,
1210222012102220,
1110, //57
#GOGOEND
1110100011101000,
1110100011101000,
1110300011103000,
1110300011103000,
1120300011203000,
1120300011203000,
1120302211203022,
1120302211203022,
1122112211112250,
000000000000000000000000000000000008000000000000, //67
1,
33030020,
11001100,
11110000,
11000100,
33033001,
1210201012102010,
3000300040111111, //75
#GOGOSTART
1120102011201022,
1120201000404000,
1120102011201022,
1220201040004000,
1120102011201022,
1122221040400040,
1210222012102220,
111
#SCROLL 3
4, //83
#SCROLL 1
1211100012111000,
1211200012112000,
1212100012121010,
0012100010000000, //87
#GOGOEND
20202022,
02022020,
40404044,
03303000,
0, //92
#END

COURSE:Hard
LEVEL:7
BALLOON:13
SCOREINIT:520,1950
SCOREDIFF:135 //6* before NS2, Score 480/128
#START
500000000008000000000000500000000008000000000000,
500000000008000000000000500000000008000000000000,
500000000008000000000000500000000000000000000000,
000000000000000000000000000008000000000000000000, //4
1110
#GOGOSTART
3000
#GOGOEND
1110
#GOGOSTART
3000,
#GOGOEND
1110
#GOGOSTART
3000
#GOGOEND
1110
#GOGOSTART
3000,
#GOGOEND
1110
#GOGOSTART
3000
#GOGOEND
1110
#GOGOSTART
3000,
#GOGOEND
1110
#GOGOSTART
3000
#GOGOEND
1110
#GOGOSTART
3000, //8
#GOGOEND
1000100010201011,
10121010,
1000102010001011,
12101120,
1000100010201011,
10121010,
1000102010001011,
12121120, //16
1110
#GOGOSTART
3000
#GOGOEND
1110
#GOGOSTART
3000,
#GOGOEND
1110
#GOGOSTART
3000
#GOGOEND
1110
#GOGOSTART
3000,
#GOGOEND
1110
#GOGOSTART
3000
#GOGOEND
1110
#GOGOSTART
3000,
#GOGOEND
1110
#GOGOSTART
3000
#GOGOEND
1110
#GOGOSTART
3000,
#GOGOEND
0202,
0202,
0202,
00202220,
10201021,
01201120,
10210021,
01204040,
3131,
3333, //30
500000000000000000000008000000000000400000000000,
500000000000000000000008000000000000400000000000,
500000000000000000000008000000000000400000000000,
500000000000000000000008000000000000400000000000,
0304,
00300046,
000000000000000000000000000000000008000000000000, //37
11000022,
0,
11221120,
3340, //41
#GOGOSTART
12121212,
11210440,
12121212,
11214040,
12121212,
11014404,
11221122,
1110, //49
12121212,
11210440,
12121212,
11214040,
12121212,
11014404,
11221122,
1110, //57
#GOGOEND
9,
09008000,
0101,
0303,
0404,
0404,
0303,
0303,
1110200011102050,
000000000000000000000000000000000008000000000000,
1,
33030000,
11001100,
11110000,
11000100,
33033001,
11211120,
3340, //75
#GOGOSTART
12121212,
11210440,
12121212,
11214040,
12121212,
11014404,
11221122,
1114, //83
11001100,
11001100,
11001111,
01101000, //87
#GOGOEND
20202022,
02022020,
40404044,
03303000,
0, //92
#END

COURSE:Normal
LEVEL:6
BALLOON:13
SCOREINIT:690,3480
SCOREDIFF:238 //4* before NS2, Score 580/198
#START
500000000008000000000000500000000008000000000000,
500000000008000000000000500000000008000000000000,
500000000008000000000000500000000000000000000000,
000000000000000000000000000008000000000000000000,
0
#GOGOSTART
3
#GOGOEND
0
#GOGOSTART
3,
#GOGOEND
0
#GOGOSTART
3
#GOGOEND
0
#GOGOSTART
3,
#GOGOEND
0
#GOGOSTART
3
#GOGOEND
0
#GOGOSTART
3,
#GOGOEND
0
#GOGOSTART
3
#GOGOEND
0
#GOGOSTART
3, //8
#GOGOEND
0202,
0202,
0202,
0222,
0202,
0202,
0202,
0222, //16
0
#GOGOSTART
3
#GOGOEND
0
#GOGOSTART
3,
#GOGOEND
0
#GOGOSTART
3
#GOGOEND
0
#GOGOSTART
3,
#GOGOEND
0
#GOGOSTART
3
#GOGOEND
0
#GOGOSTART
3,
#GOGOEND
0
#GOGOSTART
3
#GOGOEND
0
#GOGOSTART
3, //20
#GOGOEND
0202,
0202,
0202,
0222,
0202,
0202,
0202,
0244,
33,
3333, //30
500000000000000000000008000000000000400000000000,
500000000000000000000008000000000000400000000000,
500000000000000000000008000000000000400000000000,
500000000000000000000008000000000000400000000000,
0304,
0304,
0102, //37
1,
1,
11,
3340, //41
#GOGOSTART
1111,
10100440,
1111,
1144,
1111,
10104400,
11,
1110, //49
1111,
10100440,
1111,
1144,
1111,
10104400,
11,
1110, //57
#GOGOEND
9,
09008000,
0101,
0303,
0404,
0404,
0303,
0303,
0404,
0202, //67
1,
3,
11,
1,
1,
33,
11,
3340, //75
#GOGOSTART
1111,
10100440,
1111,
1144,
1111,
10104400,
11,
1114, //83
500000000008000000000000500000000008000000000000,
500000000008000000000000500000000008000000000000,
500000000008000000000000500000000000000000000000,
000000000000000000000000000008000000000000000000, //87
#GOGOEND
22,
22,
4444,
03303000,
0, //92
#END

COURSE:Easy
LEVEL:3
BALLOON:13
SCOREINIT:490,4410
SCOREDIFF:160
#START
5,
0,
0,
000000000000000000000000000008000000000000000000, //4
0
#GOGOSTART
3
#GOGOEND
0
#GOGOSTART
3,
#GOGOEND
0
#GOGOSTART
3
#GOGOEND
0
#GOGOSTART
3,
#GOGOEND
0
#GOGOSTART
3
#GOGOEND
0
#GOGOSTART
3,
#GOGOEND
0
#GOGOSTART
3
#GOGOEND
0
#GOGOSTART
3, //8
#GOGOEND
0202,
0202,
0202,
0222,
0202,
0202,
0202,
0222, //16
0
#GOGOSTART
3
#GOGOEND
0
#GOGOSTART
3,
#GOGOEND
0
#GOGOSTART
3
#GOGOEND
0
#GOGOSTART
3,
#GOGOEND
0
#GOGOSTART
3
#GOGOEND
0
#GOGOSTART
3,
#GOGOEND
0
#GOGOSTART
3
#GOGOEND
0
#GOGOSTART
3, //20
#GOGOEND
0202,
0202,
0202,
0222,
0202,
0202,
0202,
0244,
33,
3333, //30
500000000000000000000008000000000000400000000000,
500000000000000000000008000000000000400000000000,
500000000000000000000008000000000000400000000000,
500000000000000000000008000000000000400000000000,
0304,
0304,
0102, //37
1,
1,
11,
3340, //41
#GOGOSTART
5,
000000000008000000000000000000300000300000000000,
5,
000000000008000000000000300000000000300000000000,
5,
000000000008000000000000300000300000000000000000,
500000000008000000000000500000000008000000000000,
1110, //49
5,
000000000008000000000000000000300000300000000000,
5,
000000000008000000000000300000000000300000000000,
5,
000000000008000000000000300000300000000000000000,
500000000008000000000000500000000008000000000000,
1110, //57
#GOGOEND
9,
09008000,
0101,
0303,
0404,
0404,
0303,
0303,
0404,
0202, //67
1,
3,
11,
1,
1,
33,
11,
3340, //75
#GOGOSTART
5,
000000000008000000000000000000300000300000000000,
5,
000000000008000000000000300000000000300000000000,
5,
000000000008000000000000300000300000000000000000,
500000000008000000000000500000000008000000000000,
1114, //83
500000000008000000000000500000000008000000000000,
500000000008000000000000500000000008000000000000,
500000000008000000000000500000000000000000000000,
000000000000000000000000000008000000000000000000, //87
#GOGOEND
22,
22,
4444,
000000600000000000000000000008000000000000000000,
0,
#END
