//TJADB Project
TITLE:Genkai Toppa × Survivor
TITLEJA:限界突破×サバイバー
SUBTITLE:--Kiyoshi Hikawa/Dragon Ball Super
SUBTITLEJA:「ドラゴンボール超」より
BPM:187.5
WAVE:Genkai Toppa x Survivor.ogg
OFFSET:-1.979
DEMOSTART:58.099 //shinuchi:
9160/6440/4010/3790/1830

COURSE:Edit
LEVEL:8
BALLOON:2,7,7,7
SCOREINIT:590,1910
SCOREDIFF:158 //Actual
Branch Condition: //No Misses over all 7 big notes before #44 ->
#M, otherwise
#N.
#E does not exist.
#START
#BARLINEOFF
#MEASURE 1/4
0,
#BARLINEON
#MEASURE 4/4
1110202011100020,
1110002000201020,
1110202011100020,
1110002000002000,
1010202210102010,
0010202210102010,
0010202210102010,
0022102210221000,
11201021,
01021020, //11
11221121,
0011202010102000,
11221121,
0011202010102000,
1110201010102000,
2210102010102000,
1110201010102000,
2210102210201020, //19
1010202210112010,
0011202010112000,
1010202210112010,
0011202010112000,
1110201011202000,
2210102011202000,
1110201011202000,
2210102210102000, //27
2011200010002020,
10212210,
2011200010002020,
1020201020201111,
2020102020102222,
1020201020201111,
20210210,
20120120, //35
2011200010002020,
12212230,
2011200010202010,
2020102020102222,
1011103000002000,
3011103000102010,
2210102210102210,
1022101022221000,
30030030,
78000000, //45
#BRANCHSTART p,90,90
#N
#GOGOSTART
1011201011201020,
0010222010112020,
1011202011201020,
0010222010201120,
1011104000102210,
1011104000101110,
2210221022102210,
700000000000000000080000000000100000200000200000, //n53
1011201011201020,
0010222010112020,
1011202011201020,
0010222010201120,
1011104000102210,
1011104000101110,
2210221022102210,
500000000000000008000000000000100000200200200000, //n61
1110201110201110,
1110201110102000,
30304043,
0011204030000000,
#GOGOEND
0,
0, //n67
#E
#GOGOSTART
1011201011201020,
0010222010112020,
1011202011201020,
0010222010201120,
1011104000102210,
1011104000101110,
2210221022102210,
700000000000000000080000000000100000200000200000, //e53
1011201011201020,
0010222010112020,
1011202011201020,
0010222010201120,
1011104000102210,
1011104000101110,
2210221022102210,
500000000000000008000000000000100000200200200000, //e61
1110201110201110,
1110201110102000,
30304043,
0011204030000000,
#GOGOEND
0,
0, //e67
#M
#GOGOSTART
1111202210102010,
0011202011222020,
1111202210102010,
0011202010221020,
1111104000221020,
1111104000221020,
1120112011112000,
700000000000000000080000000000100000200000200200, //m53
1111202210102010,
0011202011222020,
1111202210102010,
0011202010221020,
1111104000221020,
1111104000221020,
1120112011112000,
500000000000000008000000000000100000200000100000, //m61
2210102210102210,
2210102210102000,
1110400030004030,
0011204030000000,
#GOGOEND
0,
0, //m67
#BRANCHEND
#END

COURSE:Oni
LEVEL:3
BALLOON:12,12,12,16,20
SCOREINIT:990,4990
SCOREDIFF:315
#START
#BARLINEOFF
#MEASURE 1/4
0,
#BARLINEON
#MEASURE 4/4
11001100,
11010400,
11001100,
11010040,
70000087,
00000807,
00000800,
0333,
11101021,
01011040, //11
10101021,
01004000,
10101021,
01004000,
11,
11,
33,
33, //19
10201021,
01014000,
10201021,
01014000,
11,
11,
33,
33, //27
4411,
22020000,
4411,
22020000,
10102200,
10102200,
7,
8, //35
4411,
22020000,
4411,
22020000,
33030000,
33030000,
7,
0800,
30030030,
3, //45
#GOGOSTART
12101105,
000000000000000008000000000000000000000000000000,
12101105,
000000000000000008000000000000100000200000100000,
10040121,
10040000,
3333,
500000000000000008000000000000100000200000200000, //53
12101105,
000000000000000008000000000000100000200000200000,
12101105,
000000000000000008000000000000100000200000200000,
10040122,
10040121,
3333,
30000112, //61
10210210,
10210210,
40000021,
00333000,
#GOGOEND
0,
0, //67
#END

COURSE:Hard
LEVEL:3
BALLOON:10,10,10,12,22,15
SCOREINIT:850,5440
SCOREDIFF:270
#START
#BARLINEOFF
#MEASURE 1/4
0,
#BARLINEON
#MEASURE 4/4
11001100,
11010400,
11001100,
11010040,
70000087,
00000807,
00000800,
0333,
11101021,
01011040, //11
10101021,
01004000,
10101021,
01004000,
11,
22,
33,
44, //19
10201021,
01004000,
10201021,
01004000,
11,
22,
33,
44, //27
4411,
22020000,
4411,
22020000,
10102200,
10102200,
7,
8, //35
4411,
22020000,
4411,
22020000,
33030000,
33030000,
7,
0008,
30030030,
3, //45
#GOGOSTART
10101105,
000000000000000008000000000000000000000000000000,
10101105,
000000000000000008000000000000100000100000100000,
10040222,
20040000,
3333,
500000000000000008000000000000100000100000100000, //53
10101105,
000000000000000008000000000000100000100000100000,
10101105,
000000000000000008000000000000100000100000100000,
10040222,
20040111,
7,
000000000000080000000000000000100000100000100000, //61
10030030,
30030030,
40000003,
00333000,
#GOGOEND
0,
0, //67
#END

COURSE:Normal
LEVEL:3
BALLOON:7,7,7,9,15,10
SCOREINIT:1070,10560
SCOREDIFF:700
#START
#BARLINEOFF
#MEASURE 1/4
0,
#BARLINEON
#MEASURE 4/4
33,
30030000,
33,
30030040,
70000087,
00000807,
00000800,
0333,
0,
0004, //11
10000001,
01004000,
10000001,
01004000,
11,
11,
33,
33, //19
10000001,
01004000,
10000001,
01004000,
11,
11,
33,
33, //27
4400,
0,
4400,
0,
12,
12,
7,
8, //35
4400,
0,
4400,
0,
30030000,
30030000,
7,
0008,
30030030,
3, //45
#GOGOSTART
10101005,
000000000000000008000000000000000000000000000000,
20202005,
000000000000000008000000000000000000000000000000,
00040000,
00040000,
3333,
3, //53
10101005,
000000000000000008000000000000000000000000000000,
20202005,
000000000000000008000000000000000000000000000000,
00040000,
00040000,
7,
0800, //61
10010000,
10010000,
40000003,
0330,
#GOGOEND
0,
0, //67
#END

COURSE:Easy
LEVEL:3
BALLOON:5,5,5,7,12,7
SCOREINIT:1030,14380
SCOREDIFF:760
#START
#BARLINEOFF
#MEASURE 1/4
0,
#BARLINEON
#MEASURE 4/4
33,
3,
33,
3004,
70000087,
00000807,
00000800,
0333,
0,
0, //11
1,
03,
1,
03,
11,
11,
33,
33, //19
1,
03,
1,
03,
11,
11,
33,
33, //27
0011,
500000000000000000000000000008000000000000000000,
0011,
500000000000000000000000000008000000000000000000,
1,
2,
7,
8, //35
0011,
500000000000000000000000000008000000000000000000,
0011,
500000000000000000000000000008000000000000000000,
3,
3,
9,
0000090000008000,
0,
0, //45
#GOGOSTART
10001005,
000000000000000008000000000000000000000000000000,
10001005,
000000000000000008000000000000000000000000000000,
00040000,
00040000,
33,
3, //53
10001005,
000000000000000008000000000000000000000000000000,
10001005,
000000000000000008000000000000000000000000000000,
00040000,
00040000,
7,
0800, //61
10010000,
10010000,
40000003,
0330,
#GOGOEND
0,
0, //67
#END
