//TJADB Project
TITLE:Kuon no Yoru
TITLEJA:久遠の夜
SUBTITLE:--Dan Nakagawa feat. Saori Fukuyama
BPM:185
WAVE:Kuon no Yoru.ogg
OFFSET:-9.177
DEMOSTART:63.974

COURSE:Oni
LEVEL:8
BALLOON:16
SCOREINIT:640
SCOREDIFF:175
#START
0000000022222210,//1
#GOGOSTART
0000201110102010,
0011201011102010,
0010201011102011,
1010200011102010,
0010200011102210,
0010200011102000,
7,
08000000,//9
#GOGOEND
2222,
2000200020222020,
2222,
2020200020202022,
2222,
2000202220222022,
2323,
2323,
2000200020002022,
2000202220102010,
2000200020002022,
2000202220202022,
2000200020002022,
21111111,
3,
0010112030000000,
2010201120102010,
2010201120102010,
2010201120102000,
1002201020112000,
2010201120102010,
2010201120102010,
2010201120102000,
1001202010221120,
1010201110102010,
1010201110102010,
1010201110102010,
1011201011112000,
11111111,
1111111111111110,
30030003,
0020101020102022,
1000201000222030,
,//43
#GOGOSTART
1010201110112010,
1010201110201022,
1010201110102011,
2210102020201020,
1010201110112010,
1010201110112010,
500000000000000000000000000000000000000000000008,
0000221000201022,
1011201110102010,
1011201022201022,
1011201110102011,
1011201022201022,
1011201110112011,
1011201110112011,
1011201110112011,
2020102011102210,
1010103000221000,
1010103000112210,
2211112211112211,
1,
#GOGOEND
#END

COURSE:Hard
LEVEL:6
BALLOON:13
SCOREINIT:700
SCOREDIFF:180
#START
20202021,//1
#GOGOSTART
00201121,
00201121,
00201121,
01201121,
00201021,
00201120,
7,
08000000,//9
#GOGOEND
2222,
2222,
2222,
2222,
2222,
2222,
2323,
2323,
2222,
20202121,
2222,
20202121,
2222,
21111111,
3,
0010111030000000,
10210120,
10201120,
10210120,
1002202020101000,
10210120,
10201120,
10210120,
10221110,
10212121,
10212121,
10211210,
10211120,
33,
33,
600000000000000000000000000000000000000000000008,
0000200020002011,
1000201000222030,
,//43
#GOGOSTART
1000101110102000,
1000201110200020,
1000201110102000,
2220102000102000,
1000201110102000,
1000201110102000,
500000000000000000000000000000000000000000000008,
0000222000201011,
10210122,
1000201020202011,
10211121,
1000201110202010,
1000201110102010,
1000201110102000,
1000201110102000,
12121122,
11130220,
11130220,
600000000000000000000000000000000008000000000000,
3,
,//64
#GOGOEND
,
,
#END

COURSE:Normal
LEVEL:5
BALLOON:8
SCOREINIT:900
SCOREDIFF:250
#START
00000003,//1
#GOGOSTART
00101011,
00101011,
00101011,
00101011,
00101011,
0110,
7,
08000000,//9
#GOGOEND
0202,
0202,
0202,
0202,
0202,
0202,
0303,
0303,
0202,
0202,
1202,
0202,
1202,
0203,
3,
01103000,
10110101,
1111,
10110000,
1210,
10110101,
10101011,
00110000,
,
10101110,
10101110,
10110110,
1210,
33,
33,
600000000000000000000000000000000000000000000008,
,
30030003,
,//43
#GOGOSTART
10101110,
1210,
10101110,
2120,
10101110,
10101110,
500000000000000000000000000000000000000000000008,
,
10201110,
1110,
10201110,
1110,
10110110,
10110110,
10201120,
11101110,
30030000,
30030000,
600000000000000000000000000000000008000000000000,
3,
,//64
#GOGOEND
,
,
#END

COURSE:Easy
LEVEL:4
BALLOON:6
#START
00000003,//1
#GOGOSTART
00001001,
00101001,
00001001,
00101001,
0011,
0110,
7,
08000000,//9
#GOGOEND
0202,
0202,
0202,
0202,
0202,
0202,
0303,
0303,
0202,
0202,
0202,
0202,
0202,
0203,
3,
0330,
11,
1110,
11,
1110,
11,
1110,
11,
3,
1110,
1110,
1110,
1110,
33,
33,
600000000000000000000000000000000000000000000008,
,
30030003,
,//43
#GOGOSTART
11,
1110,
11,
2220,
10010000,
10010000,
500000000000000000000000000000000000000000000008,
,
11,
1110,
11,
1110,
10020000,
10020000,
500000000000000000000000000000000000000000000008,
,
30030000,
30030000,
600000000000000000000000000008000000000000000000,
3,
,//64
#GOGOEND
,
,
#END
