//TJADB Project
TITLE:Kyun! Vampire Girl -VitaMS Chart-
TITLEJA:きゅんっ!ヴァンパイアガール
SUBTITLE:--Tomoko Sasaki feat. 765PRO ALLSTARS/THE iDOLM@STER 2
SUBTITLEJA:VitaMS譜面 「アイドルマスター」より
BPM:145
WAVE:Kyun! Vampire Girl -765PRO ALLSTARS Version-.ogg
OFFSET:-1.905
DEMOSTART:68.930

COURSE:Oni
LEVEL:6
BALLOON:7,8,8,10,8,8,10
SCOREINIT:580,1850
SCOREDIFF:140
#START
#BARLINEOFF
#MEASURE 2/4
20022220,
#BARLINEON
#MEASURE 4/4
11010122,
02202110,
11010222,
02202040, //5
11010122,
02202110,
1110222011102220,
1111100022222000,
1111111122222222,
0, //11
1022202010201020,
0020222020222000,
1022202010200020,
0022202022202000,
1011202010112020,
12120404,
30300007,
000000000000080000000000000000000000000000000000, //19
1022202010201020,
0020222020222000,
1022202010200020,
0022202022202000,
1011202010112020,
12120404,
30300003,
0044, //27
1010201110102022,
1010201000111010,
0000220200000030,
0020201010100011,
1000220200000030,
02211100,
1000100022020010,
0010220200000000, //35
33403340,
600000000000000000000000000008000000000000000000,
1000100022020010,
0010220200000000,
3001101020022220,
3002202030022020,
600000000000000000000000000000000008000000000000,
34343400, //43
#GOGOSTART
1020102010112010,
0011202010222000,
1020102010111020,
1011202010222000,
1020102010111020,
1011202010222000,
33700080,
33700080, //51
33003300,
300000300000700000000000000000000000000008000000,
0000000020022220, //54
#GOGOEND
11010122,
02202110,
11010222,
33003300,
600000000000000000000000000000000008000000000000,
34343400, //60
#GOGOSTART
1020102010112010,
0011202010222000,
1020102010111020,
33330440,
1020102010111020,
1011202010222000,
33700080,
33700080, //68
33003300,
300000300000700000000000000000000000000008000000,
00000044,
33330443,
#GOGOEND
4,
0, //74
#END

COURSE:Hard
LEVEL:5
BALLOON:13,6,13,7,7,8,7,7,8
SCOREINIT:670,2700
SCOREDIFF:168
#START
#BARLINEOFF
#MEASURE 2/4
0,
#BARLINEON
#MEASURE 4/4
500000000000000000000000000000000000000000000008,
0,
500000000000000000000000000000000000000000000008,
0, //5
10101011,
10101011,
1212,
33003300,
9009,
8, //11
11221122,
00200202,
10120404,
00000222,
11221122,
12120202,
10100007,
000000000000080000000000000000000000000000000000, //19
11221122,
02200202,
11220404,
00000222,
11221122,
11000202,
10100004,
0044, //27
11221122,
11210121,
0000220200000030,
0020201010100011,
1000220200000030,
02211100, //33
10102021,
11202000,
33003300,
600000000000000000000000000008000000000000000000,
10102021,
11202000,
3,
43,
9009,
8, //43
#GOGOSTART
10101121,
01211440,
11221122,
11221440,
10101122,
11221000,
33700080,
33700080, //51
33003300,
300000300000700000000000000000000000000008000000,
0, //54
#GOGOEND
11010122,
02202000,
11010222,
33003300,
600000000000000000000000000000000000000000000008,
0, //60
#GOGOSTART
10101121,
01211440,
11221122,
33330440,
10101122,
11221000,
33700080,
33700080, //68
33003300,
300000300000700000000000000000000000000008000000,
00000044,
33330444,
#GOGOEND
4,
0, //74
#END

COURSE:Normal
LEVEL:4
BALLOON:10,4,10,6,6
SCOREINIT:690,3980
SCOREDIFF:218
#START
#BARLINEOFF
#MEASURE 2/4
0,
#BARLINEON
#MEASURE 4/4
0,
0,
0,
0, //5
11,
11,
1212,
33003300,
9009,
8, //11
1122,
00200200,
10100404,
0,
1122,
1100,
10100007,
000000000000080000000000000000000000000000000000, //19
1122,
00200200,
10100404,
0,
1122,
1,
10100004,
0044, //27
1122,
10100111,
00400003,
00111000,
00400003,
00111000, //33
1120,
1120,
33003300,
600000000000000000000000000008000000000000000000,
1120,
1120,
3,
43,
9009,
8, //43
#GOGOSTART
1111,
10101440,
1111,
2222,
1111,
1110,
33000000,
33000000, //51
33003300,
300000300000700000000000000000000000000008000000,
0, //54
#GOGOEND
12,
1120,
12,
33003300,
600000000000000000000000000000000000000000000008,
0, //60
#GOGOSTART
1111,
10101440,
1111,
33330440,
1111,
1110,
33000000,
33000000, //68
33003300,
300000300000700000000000000000000000000008000000,
0,
33330444,
#GOGOEND
4,
0, //74
#END

COURSE:Easy
LEVEL:3
BALLOON:6,3,6,4,4,6
SCOREINIT:600,5530
SCOREDIFF:213
#START
#BARLINEOFF
#MEASURE 2/4
0,
#BARLINEON
#MEASURE 4/4
0,
0,
0,
0, //5
11,
11,
1111,
33003300,
9009,
8, //11
1111,
00200200,
1110,
0,
2222,
2200,
10100007,
000000000000080000000000000000000000000000000000, //19
1111,
00200200,
1100,
0,
2222,
2,
10100004,
0044, //27
11,
1100,
00400003,
0,
00400003,
0, //33
12,
1120,
33003300,
600000000000000000000000000008000000000000000000,
12,
1120,
3,
43,
9009,
8, //43
#GOGOSTART
0101,
00100440,
0101,
2222,
0101,
0101,
33000000,
33000000, //51
33003300,
300000000000700000000000000000000000000008000000,
0, //54
#GOGOEND
12,
1,
12,
33003300,
600000000000000000000000000000000000000000000008,
0, //60
#GOGOSTART
0101,
00100440,
0101,
1122,
0101,
0101,
33000000,
33000000, //68
33003300,
300000000000700000000000000000000000000008000000,
0,
9009,
#GOGOEND
8,
0, //74
#END
