//TJADB Project
TITLE:Kimi o Nosete
TITLEJA:君をのせて
SUBTITLE:--Azumi Inoue/Castle in the Sky
SUBTITLEJA:「天空の城ラピュタ」より
BPM:118
WAVE:Kimi o Nosete.ogg
OFFSET:-2.304
DEMOSTART:18.066

COURSE:Oni
LEVEL:6
SCOREINIT:750
SCOREDIFF:190
#START
222222,
202020111111,
1020121010200020,
1020121010200020,
1020121010200020,
1020121010200020,
122222,
122222,
10211020,
12010121,
10211020,
12010121,
10211202,
12010122,
10211020,
1020221020221020,
10211020,
12010121,
10211020,
12010121,
10110120,
1010001010202022,
1010202110102021,
1022101000001010,
1022201010002000,
1022201000001010,
1022201010002000,
1022201020220220,
1010200010102022,
1022201010000000,
1110111011101110,
6,
000000000000000000000008000000000000300000000000,
#GOGOSTART
1020221010202210,
1010221010200020,
1010221000102000,
1020221010201220,
1020221010202210,
1010221020020020,
10211020,
1020221011010110,
#GOGOEND
10211020,
12010121,
10211020,
12010121,
10211202,
12010122,
10211020,
1020221020221020,
10211020,
12010121,
10211020,
12010121,
10110120,
1000101000202022,
1010202110102000,
500000000000000000000000000000000008000000000000,
#END

COURSE:Hard
LEVEL:4
SCOREINIT:880
SCOREDIFF:210
#START
,
,
10010202,
1,
10010202,
1,
122222,
122222,
10211020,
10210010,
10211020,
10210011,
10211200,
10210122,
10211020,
20210011,
10211020,
10210011,
10211020,
10210001,
10110020,
1001001010000000,
11221020,
10000022,
20022020,
20010011,
10011020,
20010000,
11102221,
10011000,
3333,
6,
000000000000000000000008000000000000300000000000,
#GOGOSTART
1022201010200020,
1022201010200020,
1022201000102000,
11201120,
1022201010200020,
1022201010200020,
10211020,
10000011,
#GOGOEND
10211020,
10210011,
10211020,
10210011,
10211200,
10210122,
10211020,
20210011,
10211020,
10210010,
10211020,
10210001,
10110020,
10210000,
11221020,
500000000000000000000000000000000000000000000008,
#END

COURSE:Normal
LEVEL:3
BALLOON:5,5
SCOREINIT:1060
SCOREDIFF:340
#START
,
,
10010000,
1,
10010000,
1,
3,
3,
10011010,
1,
20022020,
2,
10011100,
1,
20022020,
2,
10011010,
1,
20022020,
2,
10110010,
10011000,
5,
000000000008000000000000000000000000000000000000,
20022020,
7008,
10011010,
7008,
1122,
10011000,
3333,
6,
000000000000000000000008000000000000300000000000,
#GOGOSTART
33,
30300001,
10110100,
1004,
44,
40400001,
10111010,
1,
#GOGOEND
10011010,
1,
20022020,
2,
10011100,
1,
20022020,
2,
10011010,
1,
20022020,
2,
10110010,
10110000,
11101010,
500000000000000000000000000000000000000000000008,
#END

COURSE:Easy
LEVEL:2
SCOREINIT:1060
SCOREDIFF:490
#START
,
,
1,
1,
1,
1,
3,
3,
11,
1,
22,
2,
11,
1,
5,
000000000008000000000000000000000000000000000000,
11,
1,
22,
2,
11,
1110,
5,
000000000008000000000000000000000000000000000000,
22,
2,
11,
1,
12,
12,
3333,
6,
000000000000000000000008000000000000000000000000,
#GOGOSTART
33,
3300,
1110,
1,
44,
4400,
1110,
1,
#GOGOEND
11,
1,
22,
2,
11,
1,
5,
000000000008000000000000000000000000000000000000,
11,
1,
22,
2,
11,
1110,
1110,
500000000000000000000000000000000008000000000000,
#END
