//TJADB Project
TITLE:Bokura wa Ima no Naka de
TITLEJA:僕らは今のなかで
SUBTITLE:--μ’s/Love Live! School idol project
SUBTITLEJA:μ's TVアニメ「ラブライブ!」より
BPM:196
OFFSET:-1.812
WAVE:Bokura wa Ima no Naka de.ogg
DEMOSTART:52.322

COURSE:Oni
LEVEL:8
SCOREINIT:660
SCOREDIFF:180
#START
30000003,
00000003,
00000003,
0000000000112000,
10210201,
0011201020112000,
1000222000001110,
0011201020112000,
500000000000000000000008000000300000300000300000,
03030040,
10210211,
1000201000201011,
11221221,
0010201020222000,
10210211,
1000201000201011,
11221214,
0040004000101111,
10210221,
1000201000202011,
11221221,
0010201020222000,
10102023,
0011102020102010,
2000201020112010,
0022201010002010,
00112021,
10210001,
10202121,
0022201010002010,
00202001,
12210205,
000000000000000000000008000000000000200000100000,
0020202011102022,
10221022,
1110201000102011,
10210121,
0010101022102010,
0010202011102020,
1110202011102050,
000000000000000008000000200200200200200000300000,
0030001210112000,//42
#GOGOSTART
500000000000000000000000000008000000200000200000,
0011101120111011,
2001102000111040,
0000000010011010,
0010200021102030,
0010200021102010,
2210201022102030,
0010201120112110,
500000000000000000000000000008000000200000200000,
0011101120111011,
2001102000111040,
0000000010011010,
0010200021102030,
00404021,
2210201022102030,//57
#GOGOEND
0020202022222220,//58
#GOGOSTART
1110222011102220,
1110201000221010,
2210201000222010,
2210201000112110,
1110222011102220,
1110201000221010,
2210201000222050,
000000000000000000000008000000000000000000000000,
3000001120202010,
0000001120201010,
0000001120101010,
0022202020001000,
3,
#GOGOEND
#END

COURSE:Hard
LEVEL:6
BALLOON:19
#START
30000003,
00000003,
00000003,
0004,
10210201,
0222,
1000222000001110,
0222,
500000000000000000000008000000300000300000300000,
03030040,
10210020,
10210020,
10011221,
0000200010222000,
10210020,
10210020,
10011114,
04040010,
10210020,
10210020,
10011221,
0000200010222000,
10102023,
00011221,
5,
000000000008000000000000000000000000000000000000,
10222022,
10210001,
10202211,
0000002220002010,
00202001,
12210201,
00000021,
0020202011102010,
00221021,
10210021,
10210221,
0010200011102010,
0010200011102010,
0010200011102050,
000000000000000000000008000000000000000000300000,
03000000,//42
#GOGOSTART
500000000000000000000000000008000000200000200000,
0111,
1000101000111030,
00001011,
00202003,
00404001,
0010200011102030,
0000001110101010,
500000000000000000000000000008000000200000200000,
0111,
1000101000111030,
00001011,
00202003,
00404001,
1000111000200050,//57
#GOGOEND
000000000000000000000008000000000000000000000000,//58
#GOGOSTART
3344,
1000201000222000,
1110201000200000,
1110201000222000,
3344,
1000201000222000,
1110201000202050,
000000000000000000000008000000000000000000000000,
7,
,
8,
00011111,
10220000,
,//72
#GOGOEND
,
#END

COURSE:Normal
LEVEL:6
BALLOON:12
#START
30000003,
00000003,
00000003,
0004,
10110101,
0222,
10110011,
0222,
500000000000000000000008000000000000000000300000,
03030000,
10110000,
10110000,
10011011,
,
10110000,
10110000,
10011012,
02020000,
10110000,
10110000,
10011011,
0001,
10202013,
00011020,
5,
000000000008000000000000000000000000000000000000,
10012000,
10210000,
10012011,
,
00202001,
10202001,
00000011,
,
10201110,
10110020,
10110115,
000000000000000000000008000000000000000000000000,
10201120,
10201125,
000000000000000000000008000000000000000000300000,
03000000,//42
#GOGOSTART
500000000000000000000000000000000000000008000000,
0111,
10110113,
00001011,
00202001,
00202001,
00202013,
,
500000000000000000000000000000000000000008000000,
0111,
10110113,
00001011,
00202003,
00404001,
10110205,//57
#GOGOEND
000000000000000000000008000000000000000000000000,//58
#GOGOSTART
3344,
10210020,
10110200,
10210020,
3344,
10210020,
11110225,
000000000000000000000008000000000000000000000000,
9,
09,
8,
,
3,
,//72
#GOGOEND
,
#END

COURSE:Easy
LEVEL:4
BALLOON:9
#START
30000003,
00000003,
00000003,
,
10002001,
0111,
10002001,
0111,
500000000000000000000008000000000000000000300000,
03030000,
1,
1,
11,
1,
1,
1,
10001002,
02000000,
1,
1,
11,
1001,
10101003,
0022,
5,
000000000008000000000000000000000000000000000000,
11,
0220,
11,
02,
11,
00202001,
00000011,
,
11,
1100,
10100005,
000000000000000000000008000000000000000000000000,
11,
10102005,
000000000000000000000008000000000000000000300000,
03000000,//42
#GOGOSTART
500000000000000000000000000000000000000008000000,
0111,
10010003,
00000001,
00101002,
00202001,
00101003,
,
500000000000000000000000000000000000000008000000,
0111,
10010003,
00000001,
00101002,
0220,
10101005,//57
#GOGOEND
000000000000000000000008000000000000000000000000,//58
#GOGOSTART
3344,
10110000,
1,
1,
3344,
10110000,
5,
000000000000000000000008000000000000000000000000,
9,
09,
8,
,
3,
,//72
#GOGOEND
,
#END
