//TJADB Project
TITLE:Flying Get
TITLEJA:フライングゲット
SUBTITLE:--AKB48
BPM:131
WAVE:Flying Get.ogg
OFFSET:-2.150
DEMOSTART:51.615

COURSE:Oni
LEVEL:5
SCOREINIT:780
SCOREDIFF:190
#START
3,
1001001000000000,
3,
1001001000000000,
#GOGOSTART
1001001000202020,
1001001000000000,
1001001000202020,
1001001000000000,
1011110020222200,
300000000000600000000000000000000008000000000000,//10
#GOGOEND
11201120,
1002001000202000,
11201120,
1002001020200200,
11201120,
1002001000202000,
11201120,
2230,
1101000022020011,
1011101110001000,
1101000022020022,
2022202220002000,
1101000022020011,
1011101110001000,
1101001022020020,
21111111,
500000000000000000000000000000000008000000000000,//27
#GOGOSTART
1001101010011010,
1110110100202000,
2002202020022020,
2220220200300000,
1001101010011010,
1110110100202000,
2002202020022020,
3030300300000000,
1001101010011010,
1110110100202000,
2002202020022020,
2220220200300000,
1001101010011010,
1110110100202000,
2002202020022020,
3030300300400400,
3030300300400400,
3030300300400400,
600000000000000000000000000000000000000008000000,//46
#GOGOEND
,
1001001000202020,
1001001000000000,
1001001000202020,
1001001000000000,
1011110020222200,
300000000000600000000000000000000008000000000000,
3,
#END

COURSE:Hard
LEVEL:5
BALLOON:24
SCOREINIT:820
SCOREDIFF:210
#START
3,
1001000000000000,
3,
1001000000000000,//4
#GOGOSTART
1001001000202020,
1001001000000000,
1001001000202020,
1001001000000000,
1011100020222000,
300000000000600000000000000000000008000000000000,//10
#GOGOEND
10201120,
1001001000000000,
10201120,
2002002000000000,
10201120,
1001001000000000,
10201120,
2230,
1110100010000000,
10101110,
2220200020000000,
20202220,
1110100010000000,
10101110,
2220200020000000,
01111111,
500000000000000000000000000000000008000000000000,//27
#GOGOSTART
1110100011101000,
1110100100000000,
2220200022202000,
2220200200300000,
1110100011101000,
1110100100000000,
2220200022202000,
3030300300000000,
1110100011101000,
1110100100000000,
2220200022202000,
2220200200300000,
1110100011101000,
1110100100000000,
2220200022202000,
3030300300000000,
4040400400000000,
9,
0908,//46
#GOGOEND
,
1001001000202020,
1001001000000000,
1001001000202020,
1001001000000000,
1011100020222000,
300000000000600000000000000000000008000000000000,
3,
#END

COURSE:Normal
LEVEL:3
BALLOON:20
SCOREINIT:1110
SCOREDIFF:340
#START
3,
1,
3,
1,//4
#GOGOSTART
1111,
500000000000000000000000000008000000000000000000,
1111,
500000000000000000000000000008000000000000000000,
11,
3300,//10
#GOGOEND
11,
1110,
11,
2220,
11,
1110,
11,
2220,
1100,
1110,
2200,
2220,
1100,
1110,
11,
10101110,
500000000000000000000000000008000000000000000000,//27
#GOGOSTART
10101110,
1120,
1110,
500000000000000000000000000008000000000000000000,
10101110,
1120,
1110,
3330,
10101110,
1120,
1110,
500000000000000000000000000008000000000000000000,
10101110,
1120,
1110,
3330,
600000000000000000000000000008000000000000000000,
9,
0908,//46
#GOGOEND
,
1111,
500000000000000000000000000008000000000000000000,
2222,
500000000000000000000000000008000000000000000000,
11,
3300,
3,
#END

COURSE:Easy
LEVEL:2
BALLOON:10
SCOREINIT:830
SCOREDIFF:290
#START
3,
1,
3,
1,//4
#GOGOSTART
1110,
500000000000000000000000000008000000000000000000,
1110,
500000000000000000000000000008000000000000000000,
11,
3300,//10
#GOGOEND
11,
1,
11,
1110,
11,
1,
11,
1110,
1100,
1110,
2200,
2220,
1100,
1110,
11,
1111,
500000000000000000000000000008000000000000000000,//27
#GOGOSTART
1110,
11,
1110,
500000000000000000000000000008000000000000000000,
1110,
11,
1110,
3330,
1110,
11,
1110,
500000000000000000000000000008000000000000000000,
1110,
11,
1110,
3330,
600000000000000000000000000008000000000000000000,
9,
0908,//46
#GOGOEND
,
1110,
500000000000000000000000000008000000000000000000,
1110,
500000000000000000000000000008000000000000000000,
11,
3300,
3,
#END
