//TJADB Project
TITLE:Mezase Pokémon Master -20th Anniversary-
TITLEJA:めざせポケモンマスター -20th Anniversary-
SUBTITLE:--Rica Matsumoto/Pokémon the Series: Sun & Moon
SUBTITLEJA:「劇場版ポケットモンスター キミにきめた!」より
BPM:120
WAVE:Mezase Pokemon Master -20th Anniversary-.ogg
OFFSET:-2.290
DEMOSTART:41.769 //Shinuchi:
15980/7110/4330/2660/2270

COURSE:Edit
LEVEL:8
BALLOON:18,2,5
SCOREINIT:760,2400
SCOREDIFF:203
#START
1010211202102011,
1022120400000000,
1001201101102211,
1001201101102001,
1001201101102212,
1001201101102002,
1001201102102211,
1001201102102001,
1001201102102212,
100000220000000200000000200200000200000000100100,
7008,
3022211202012022, //12
1001210121120011,
1001210122120200,
1001210121120011,
1001210122122122,
1010201120102012,
200000100000200000000000100000101010200200100100,
1012,
3030303030002222, //20
#BPMCHANGE 240
#GOGOSTART
11211122,
11211122,
11221122,
2000200011102000,
11211221,
11211221,
11112222,
2000100020002220, //28
11211122,
11211122,
1110200011102000,
1110100022202000,
700000000000000000800000500000000000000008000000,
700000000000000000800000600000000000000008000000,
31,
11,
1000100011101110,
40040040, //38
#GOGOEND
#BPMCHANGE 120
1010220120102201,
1010211120120200,
1010220120102211,
1001210101221200,
1010201210201021,
1010201212102022,
#GOGOSTART
1010202211111030,
0010202222222111,
2020120120120040, //47
#GOGOEND
1010211202102011,
#MEASURE 2/4
10221204,
#MEASURE 4/4
000000100000202020200000200000201010
#GOGOSTART
200000000400,
0,
0,
#GOGOEND
0, //53
#END

COURSE:Oni
LEVEL:8
BALLOON:2,30,15,18,2
SCOREINIT:930,3250
SCOREDIFF:248
#START
1011221120221122,
1011220700800220,
1122112211221200,
1010120400102000,
1122112211221102,
2020120400202000,
1212121212121212,
1010220300102011,
1100201021002011,
11003344,
12121212,
34343000, //12
1120210100002222,
12002120,
1120210100002222,
100000000000600000000000000008000000000000100000,
1110201120102000,
1110201120002010,
31223121,
34343044, //20
#BPMCHANGE 240
#GOGOSTART
30201120,
10201120,
10221021,
10201222,
10201120,
10201120,
3333,
4044, //28
30201120,
10201120,
11221122,
10112020,
33,
44,
7,
0,
08,
40040040, //38
#GOGOEND
#BPMCHANGE 120
1000400010102200,
70000081,
1110402011102070,
00000082,
1120105000800010,
2210205000800030,
#GOGOSTART
30340046,
000000000000000000000000000000000000000000000008,
0040040040040040, //47
#GOGOEND
1011221120221122,
#MEASURE 2/4
10112207,
#MEASURE 4/4
008000000000
#GOGOSTART
3006,
0,
000000000000000000000000000000000008000000000000,
#GOGOEND
0, //53
#END

COURSE:Hard
LEVEL:6
BALLOON:10,15,25
SCOREINIT:1130,5080
SCOREDIFF:355
#START
1011101050000000,
000000000008000000000300000000000000000000000000,
11201120,
1010220200000000,
11201120,
1010220200000000,
11221120,
1010220200000011,
1000101022000011,
11004044,
500000000000000000000000000000000000000008000000,
600000000000000000000000000008000000000000000000, //12
1010220200001110,
2,
1010220200001110,
200000000000600000000000000008000000000000100000,
11221100,
22112001,
11221122,
33333000, //20
#BPMCHANGE 240
#SCROLL 0.75
#GOGOSTART
10102220,
10102220,
1122,
1022,
10102220,
10102220,
3333,
3022, //28
10102220,
10102220,
1122,
1222,
33,
44,
6,
0,
000000000000000000000000000000000000000000000008,
0, //38
#GOGOEND
#BPMCHANGE 120
#SCROLL 1
1000200010102200,
70000081,
11221127,
00000081,
100000100000100000500000000008000000000000200000,
200000200000200000500000000008000000000000300000,
#GOGOSTART
30330046,
000000000000000000000000000000000000000000000008,
0020020020020020,//47
#GOGOEND
1011101050000000,
#MEASURE 2/4
000000000008000000000300,
#MEASURE 4/4
000000000000
#GOGOSTART
3007,
0,
0008,
#GOGOEND
0, //53
#END

COURSE:Normal
LEVEL:4
BALLOON:12,15,20
SCOREINIT:1280,8300
SCOREDIFF:545
#START
500000000000000000000000000000000000000000000008,
000000600000000000008000000000000000000000000000,
11101110,
1000100200000000,
11101110,
1000100200000000,
22202220,
2000200100000000,
10111000,
1033,
9009,
8, //12
1010100100001000,
2,
1010100100001000,
200000000000600000000000000008000000000000000000,
11101000,
22202000,
11101110,
3330, //20
#BPMCHANGE 240
#SCROLL 0.75
#GOGOSTART
1110,
1110,
1111,
1,
2220,
2220,
500000000000000000000000000000000000000000000008,
0,
1110,
1110,
1111,
1,
33,
44,
7,
0,
0,
8, //38
#GOGOEND
#BPMCHANGE 120
#SCROLL 1
10002220,
12,
10002220,
10002001,
100000000000100000500000000008000000000000200000,
200000000000200000500000000008000000000000300000,
#GOGOSTART
30330036,
000000000000000000000000000000000000000000000008,
0, //47
#GOGOEND
500000000000000000000000000000000000000000000008,
#MEASURE 2/4
000000600000000000008000,
#MEASURE 4/4
000000000000
#GOGOSTART
3007,
0,
0008,
#GOGOEND
0, //53
#END

COURSE:Easy
LEVEL:2
BALLOON:8,10,13
SCOREINIT:1670,19050
SCOREDIFF:1640
#START
5,
000000000000000000008000000000000000000000000000,
11,
1,
11,
1,
22,
2,
1,
11,
9009,
8, //12
11,
2,
11,
200000000000600000000000000008000000000000000000,
1110,
1110,
11,
33, //20
#BPMCHANGE 240
#SCROLL 0.75
#GOGOSTART
1,
1,
11,
1,
1,
1,
500000000000000000000000000000000000000000000008,
0, //28
1,
1,
11,
1,
3,
3,
7,
0,
0,
8, //38
#GOGOEND
#BPMCHANGE 120
#SCROLL 1
11,
2,
11,
2,
3,
4,
#GOGOSTART
30000006,
000000000000000000000000000000000000000000000008,
0, //47
#GOGOEND
5,
#MEASURE 2/4
000000000000000000008000,
#MEASURE 4/4
000000000000
#GOGOSTART
3007,
0,
0008,
#GOGOEND
0, //53
#END
