//TJADB Project
TITLE:Picopico Mappy
TITLEJA:ピコピコ マッピー
SUBTITLE:--Professor Sakamoto/Mappy
SUBTITLEJA:マッピーメドレー × サカモト教授
BPM:124
WAVE:Picopico Mappy.ogg
OFFSET:-2.196
DEMOSTART:9.939

COURSE:Oni
LEVEL:8
BALLOON:15,15,3,3,3,3,15,3,3,3,3,15,7,7,15
SCOREINIT:520
SCOREDIFF:113
#START
101202100100000300300000,
101202100100000300300000,
101202100100101202100100,
34343440,
100200100200100201100200,
100200202102002102100100,
100200100200100201100200,
100200101201000202222202,
101201200100101201200100,
300202200202000300300300,
100200100200100201100200,
100200202102002102100100,
100200100200100201100200,
100200101201000202202202,
101201200100101201200100,
300202200202000300300300,
200000200002200200000200,
#SCROLL 2
306000000000000000000000000000000008000000000000,
#SCROLL 1
200000200002200200000200,
#SCROLL 2
306000000000000000000000000000000008000000000000,
#SCROLL 1
101201202102101201202102,
102101202102200300300300,
100200100200100201100200,
100200202102002102100100,
100200100200100201100200,
100200101201000202222202,
101201200100101201200100,
300202200202000300400400,
100202100202102102100200,
100201200201201201200100,
100202100202102102100200,
100201200200300000222202,
100202100202102102100200,
100201200201201201001100,
100202100201102201102200,
3030303040040000,//36
#GOGOSTART
100220102010200000101010,
500000000000000000000000000008000000000000000000,
1021221020122110,
7008,
1021221020122110,
7008,
78787878,
7008,
78787878,
7008,
2021221020122110,
1020121700008000,
1021221020122110,
1020121700008000,
1021112212020100,
7000000000080000,
#SCROLL 2
300000300000306000000000000000000008000000000000,//53
#SCROLL 1
#GOGOEND
100200100201222101200200,
100200102102222102100100,
100200100201222101200200,
100200101201111102100100,
101201202102101201202100,
300202200202000300300300,
100200100201222101200200,
100200102102222102100100,
100200100201222101200200,
100200101201111102100100,
101201202102101201202100,
300202200200300202200200,
300222100201000011200000,
#END

COURSE:Hard
LEVEL:7
BALLOON:15,12,12,2,2,2,2,12,2,2,2,2,12,5,5,12
SCOREINIT:630
SCOREDIFF:140
#START
30000330,
30000330,
33,
34343440,
100200100200100202000200,
100000200000200020200050000000000000000008000000,
100200100200100202000200,
100000200000100010000050000000000000000008000000,
33033303,
300202200202000000000000,
100200100200100202000200,
100000200000200020200050000000000000000008000000,
100200100200100202000200,
100000200000100010000050000000000000000008000000,
33033303,
300202200202000000000000,
200000200002200200000200,
#SCROLL 2
306000000000000000000000000000000008000000000000,
#SCROLL 1
200000200002200200000200,
#SCROLL 2
306000000000000000000000000000000008000000000000,
#SCROLL 1
101100202200101100202200,
101100202200300300300000,
100200100200100202000200,
100000200000200020200050000000000000000008000000,
100200100200100202000200,
100000200000100010000050000000000000000008000000,
33033303,
300202200202000000000000,
02221121,
000200200100100202200200,
02221121,
02223040,
02221121,
000100100200101101000200,
000200000200101100202200,
3030303040040000,//36
#GOGOSTART
9,
09008000,
1001110020022220,
7008,
1001110020022220,
7008,
78787878,
7008,
78787878,
7008,
2002220010011110,
2020111700008000,
1001110020022220,
1010111700008000,
1020102011020200,
7008,
#SCROLL 2
300000300000306000000000000000000008000000000000,//53
#SCROLL 1
#GOGOEND
100200100200100202000200,
100000200000200020200050000000000000000008000000,
100200100200100202000200,
100000200000100010000050000000000000000008000000,
33033303,
300202200202000000000000,
100200100200100202000200,
100000200000200020200050000000000000000008000000,
100200100200100202000200,
100000200000100010000050000000000000000008000000,
33033303,
300202200200300202200200,
300202200202000022200000,
,
#END

COURSE:Normal
LEVEL:6
BALLOON:12,3,3,9,3,3,9,2,2,2,2,9,2,2,2,2,9,9,9,9
SCOREINIT:760
SCOREDIFF:155
#START
3,
3,
33,
34340440,
10102220,
100000100000100000000050000000000008000000000000,
10102220,
100000100000100000000050000000000008000000000000,
33003300,
300400400004000000000000,
10102220,
100000100000100000000050000000000008000000000000,
10102220,
100000100000100000000050000000000008000000000000,
33003300,
300400400004000000000000,
20202200,
#SCROLL 2
306000000000000000000000000000000008000000000000,
#SCROLL 1
20202200,
#SCROLL 2
306000000000000000000000000000000008000000000000,
#SCROLL 1
11201120,
11223330,
10102220,
100000100000100000000050000000000008000000000000,
10102220,
100000100000100000000050000000000008000000000000,
33003300,
300400400004000000000000,
02221111,
02211000,
02221111,
02223040,
02221111,
01114400,
12121210,
33333000,//36
#GOGOSTART
9,
09008000,
7878,
7008,
7878,
7008,
78787878,
7008,
78787878,
7008,
2211,
7008,
1122,
7008,
11102220,
7008,
#SCROLL 2
306000000000000000000000000000000008000000000000,//53
#SCROLL 1
#GOGOEND
10102220,
100000100000100000000050000000000008000000000000,
10102220,
100000100000100000000050000000000008000000000000,
33003300,
300400400004000000000000,
10102220,
100000100000100000000050000000000008000000000000,
10102220,
100000100000100000000050000000000008000000000000,
33003300,
300000600000000008000000300000600000000008000000,
300000600000000000000008000000000000400000000000,
,
#END

COURSE:Easy
LEVEL:4
BALLOON:10,2,2,8,2,2,8,2,2,2,2,8,2,2,2,2,8,8,8,8
SCOREINIT:560
SCOREDIFF:60
#START
3,
3,
33,
03030330,
1122,
100000000000100000000050000000000008000000000000,
1122,
100000000000100000000050000000000008000000000000,
33003300,
3,
1122,
100000000000100000000050000000000008000000000000,
1122,
100000000000100000000050000000000008000000000000,
33003300,
3,
2220,
#SCROLL 2
306000000000000000000000000000000008000000000000,
#SCROLL 1
2220,
#SCROLL 2
306000000000000000000000000000000008000000000000,
#SCROLL 1
11102220,
11104040,
1122,
100000000000100000000050000000000008000000000000,
1122,
100000000000100000000050000000000008000000000000,
33003300,
3,
20202220,
1110,
20202220,
10113000,
20202220,
10104400,
1122,
3330,//36
#GOGOSTART
9,
09008000,
7878,
7008,
7878,
7008,
78787878,
7008,
78787878,
7008,
2211,
7008,
1122,
7008,
1122,
7008,
#SCROLL 2
306000000000000000000000000000000008000000000000,//53
#SCROLL 1
#GOGOEND
1212,
100000000000100000000050000000000008000000000000,
1212,
100000000000100000000050000000000008000000000000,
33003300,
000400400004000000000000,
1212,
100000000000100000000050000000000008000000000000,
1212,
100000000000100000000050000000000008000000000000,
33003300,
300000600000000008000000300000600000000008000000,
300000600000000000000008000000000000400000000000,
,
#END
