//TJADB Project
TITLE:Super Mario Bros. Medley -Old Version-
TITLEJA:スーパーマリオブラザーズ
SUBTITLE:--Koji Kondo/Super Mario Bros.
BPM:100.16
WAVE:Super Mario Bros. Medley -Old Version-.ogg
OFFSET:-2.5
DEMOSTART:2.5

COURSE:Oni
LEVEL:8
BALLOON:10,22
SCOREINIT:510
SCOREDIFF:110
#START
#SCROLL 1.15
1102011020003000,
1001201001020110,
100010002000100000200100000100000100200100000000,
1001201001020210,
100010002000100000200100000100000100200100000000,
1011210101121122,
1022120102022010,
1011210101121122,
1030030040012010,
1011210101121122,
1022120102022010,
1011210101121122,
1030030040012010,
1121021012012210,
1211021210210210,
1121021012012210,
1102011020003000,
1001201001020110,
100010002000100000200100000100000100200100000000,
1001201001020210,
100010002000100000200100000100000100200100000000,
1102102012021120,
100020002000100020002000100100000100200200100000,
1102102012021120,
100200000200100010002000200100000200100000400000,
1102102012021120,
100020002000100020002000100100000100200200100000,
1102102012021120,
100200000200100010002000200100000200100000000000,
1121021012012210,
1211021210210210,
1121021012012210,
#MEASURE 9/8
110201102000300000,
#MEASURE 4/4
#BPMCHANGE 112.64
#SCROLL 1.05
600000000000000008000000000000000000000000000000,
#MEASURE 3/4
#BPMCHANGE 100.16
#SCROLL 1.15
121211000000,
112211000000,
121211000000,
100100200200100100000000000000101010,
112212,
111111102020101020,
,
121211004000,
112211004000,
121211003000,
100100200200100100000000000000101010,
112212,
111111102020101020,
#BPMCHANGE 99.69
300000600000000000080000000000000000,
#MEASURE 4/4
#GOGOSTART
#BPMCHANGE 150.21
#SCROLL 1
100200100201001001101100,
100200100102001002202200,
100200100201001001101100,
100200100201001002202200,
100200100201001001101100,
100200100201001002202200,
#BPMCHANGE 151
3140,
#MEASURE 3/4
#GOGOEND
#BPMCHANGE 100.16
#SCROLL 1.15
121211003000,
708,
112211000000,
#MEASURE 7/8
300000000000000000
#BPMCHANGE 112.64
#SCROLL 1.04
600000000008000000000000,
#MEASURE 4/4
#BPMCHANGE 100.17
#SCROLL 1.15
1102011020003000,
#MEASURE 9/8
7000000000000008
#BPMCHANGE 73.67
#SCROLL 1
00,
#MEASURE 4/4
#GOGOSTART
#BPMCHANGE 150.21
1001201001020110,
100010002000100000200100000100000100200100000000,
1001201001020210,
100010002000100000200100000100000100200100000000,
500000000000000000000000000008000000000000000000,
112112100200,
112112100100,
112112100222,
#MEASURE 10/4
#BPMCHANGE 151.87
10000000
#BPMCHANGE 112.65
#SCROLL 1.3
11003000110030003000300000000000,
#GOGOEND
#END

COURSE:Hard
LEVEL:5
BALLOON:7,18
SCOREINIT:400
SCOREDIFF:100
#START
#SCROLL 1.15
1101011010003000,
1002001001010110,
100010001000100000100100000100000100100100000000,
1002001001010110,
100010001000100000100100000200000100100100000000,
1001101010011020,
1001101002022010,
1001101010011020,
0030030040000000,
1001101010011020,
1001101002022010,
1001101010011020,
0030030040000000,
1101011022011000,
1101011100000000,
1101011022011000,
1101011010003000,
1002001001010110,
100010001000100000100100000100000100100100000000,
1002001001010110,
100010001000100000100100000200000100100100000000,
1101102011022000,
111111100400,
1101102011022000,
100000000100100010001000100000000000000000000000,
1101102011022000,
111111100300,
1101102011022000,
100000000100100010001000100000000000000000000000,
1101011022011000,
1101011100000000,
1101011022011000,
#MEASURE 9/8
110101101000300000,
#MEASURE 4/4
#BPMCHANGE 112.64
#SCROLL 1.05
600000000000000008000000000000000000000000000000,
#MEASURE 3/4
#BPMCHANGE 100.16
#SCROLL 1.15
111111000000,
222222000000,
111111000000,
222222000000,
112212,
500000000008,
,
111111004000,
222222004000,
111111003000,
222222000000,
112212,
500000080000,
#BPMCHANGE 99.69
306008000000,
#MEASURE 4/4
#GOGOSTART
#BPMCHANGE 150.21
#SCROLL 1
100000200001001000200200,
100100200001001000200000,
100000200001001000200200,
100100200001001000200000,
100000200001001000200200,
100100200001001000200000,
#BPMCHANGE 151
34,
#MEASURE 3/4
#GOGOEND
#BPMCHANGE 100.16
#SCROLL 1.15
111111003000,
700000080000,
111111000000,
#MEASURE 7/8
000000000000000000
#BPMCHANGE 112.64
#SCROLL 1.04
600000000008000000000000,
#MEASURE 4/4
#BPMCHANGE 100.17
#SCROLL 1.15
1101011010003000,
#MEASURE 9/8
7000000000000008
#BPMCHANGE 73.67
#SCROLL 1
00,
#MEASURE 4/4
#GOGOSTART
#BPMCHANGE 150.21
1002001001010110,
100010001000100000100100000100000100100100000000,
1002001001010110,
100010001000100000100100000200000100100100000000,
5000000008000000,
111111100200,
111111100100,
111111100111,
#MEASURE 10/4
#BPMCHANGE 151.87
10
#BPMCHANGE 112.65
#SCROLL 1.3
33333300,
#GOGOEND
#END

COURSE:Normal
LEVEL:4
BALLOON:8,8,5,10
SCOREINIT:730
SCOREDIFF:180
#START
#SCROLL 1.15
0003,
1001001000000000,
1101,
1001001000000000,
1101,
0010100100000000,
0020200200000000,
0010100100000000,
0030030030000000,
0010100100000000,
0020200200000000,
0010100100000000,
0030030030000000,
10011000,
10022000,
10011000,
10011030,
1001001000000000,
1101,
1001001000000000,
1101,
1011,
500000000000000000000000000008000000000000000000,
1012,
70000800,
1011,
500000000000000000000000000008000000000000000000,
1012,
70000800,
10011000,
10022000,
10011000,
#MEASURE 9/8
100110300,
#MEASURE 4/4
#BPMCHANGE 112.64
#SCROLL 1.05
0,
#MEASURE 3/4
#BPMCHANGE 100.16
#SCROLL 1.15
111000,
222000,
111000,
222000,
111,
50000000000000000000000000000000000008,
,
111000,
333000,
111000,
333000,
111,
500000000000000000000000000000000008,
#BPMCHANGE 99.69
0,
#MEASURE 4/4
#GOGOSTART
#BPMCHANGE 150.11
#SCROLL 1
1202,
1200,
1202,
1200,
1202,
1200,
#BPMCHANGE 151
3,
#MEASURE 3/4
#GOGOEND
#BPMCHANGE 100.16
#SCROLL 1.15
111000,
78,
111000,
#MEASURE 7/8
333
#BPMCHANGE 112.64
#SCROLL 1.04
0000,
#MEASURE 4/4
#BPMCHANGE 100.17
#SCROLL 1.15
10011030,
#MEASURE 9/8
70000008
#BPMCHANGE 73.67
#SCROLL 1
0,
#MEASURE 4/4
#GOGOSTART
#BPMCHANGE 150.21
11,
1111,
12,
1111,
500000000000000000000000000008000000000000000000,
1110,
2220,
1111,
#MEASURE 10/4
#BPMCHANGE 151.87
10
#BPMCHANGE 112.65
#SCROLL 1.3
33333300,
#GOGOEND
#END

COURSE:Easy
LEVEL:3
BALLOON:7,7,8
SCOREINIT:530
SCOREDIFF:140
#START
#SCROLL 1.15
0003,
11,
1110,
11,
1110,
12,
13,
12,
0030030030000000,
12,
13,
12,
0030030030000000,
13,
12,
13,
0003,
11,
1110,
11,
1110,
11,
5000000008000000,
12,
7000000000000800,
11,
5000000008000000,
12,
7000000000000800,
13,
12,
13,
#MEASURE 9/8
003,
#MEASURE 4/4
#BPMCHANGE 112.64
#SCROLL 1.05
0,
#MEASURE 3/4
#BPMCHANGE 100.16
#SCROLL 1.15
0,
111000,
,
111000,
111,
500000000008,
,
111000,
111000,
111000,
111000,
111,
500000000008,
#BPMCHANGE 99.69
0,
#MEASURE 4/4
#GOGOSTART
#BPMCHANGE 150.11
#SCROLL 1
1202,
0200,
1202,
0200,
1202,
0200,
#BPMCHANGE 151
0,
#MEASURE 3/4
#GOGOEND
#BPMCHANGE 100.16
#SCROLL 1.15
111000,
500008000000,
111000,
#MEASURE 7/8
111
#BPMCHANGE 112.64
#SCROLL 1.04
0000,
#MEASURE 4/4
#BPMCHANGE 100.17
#SCROLL 1.15
0003,
#MEASURE 9/8
70000008
#BPMCHANGE 73.67
#SCROLL 1
0,
#MEASURE 4/4
#GOGOSTART
#BPMCHANGE 150.21
11,
1110,
12,
1110,
5000000008000000,
11,
22,
1110,
#MEASURE 10/4
#BPMCHANGE 151.87
10
#BPMCHANGE 112.65
#SCROLL 1.3
33333300,
#END
