//TJADB Project
TITLE:Mekadesu.
TITLEJA:メカデス。
SUBTITLE:--Yuuji Masubuchi
BPM:160
WAVE:Mekadesu..ogg
OFFSET:-1.139
DEMOSTART:1.082

COURSE:Edit
LEVEL:10
BALLOON:9
SCOREINIT:1000
SCOREDIFF:0
#START
#SCROLL 0.75
111010111010111010101010,
111011101010111011101010,
111010111010111020211120,
111011101010211021101010,
111010111010111010101010,
111011101010111011101010,
111010111010111020211120,
#SCROLL 1
101010100100200100101010100100200100200200200200,
#SCROLL 1.5
1111311111113111,
2222422222224222,
1111311111112222,
000000300000000000100000201010100000200200300000,
0011311111113111,
2211421122114211,
1111421421421140,
#MEASURE 7/8
000300000100211100222,
100100300000000000100000201010100100200100,
#MEASURE 4/4
4111,
200200000000200200000000100000101010200000000000,
#SCROLL 1
3011201000112010,
0011201021102211,
2011201000112010,
400000100000100000000100100000100000200000600008,
0011201000112010,
0011201021102211,
1011201020112030,
0011104000303030,
1011201000112010,
0011201021102211,
2011201000112010,
400000100000100000000100100000100000200000600008,
0011201000112010,
0011201021102211,
1011201020112030,
0011104000404040,
3020220222202202,
200200200200200200000200202020200200200200200200,
1020220222202202,
200200200200200200000200200200200200202020202020,
1020220222202202,
200200200200200200000200202020200200100200200200,
1020220222202202,
200200200200200200200200102020200200202020202020,
1000200030222022,
1010022030222222,
1002222030222022,
100000100000000200200000300000200000202000100000,
6,
000000000000000000000000000000000000000000000008,
,
#BARLINEOFF
00007008,
#BARLINEON
#SCROLL 2
111110111120111110111120,
111110111120111110111120,
111110111120111110111120,
111110111120111110300000,
#GOGOSTART
3434343434343434,
3434343434343434,
3434343434343434,
222222121212111111400000,
#SCROLL 1.5
1111311111113111,
2222422222224222,
1111311111112222,
000000300000000000100100201010100100200200300000,
0011311111113111,
2222311122224222,
1111421421424140,
#MEASURE 7/8
000300000100211100222,
100100300000000000100000201010100100200100,
#MEASURE 4/4
4111,
200200000000200200000000100000101010200000000000,
#GOGOEND
#SCROLL 1
111010111010111010101010,
#SCROLL 0.95
111011101010111011101010,
#SCROLL 0.9
111010111010111020211120,
#SCROLL 0.85
111011101010211021101010,
#SCROLL 0.8
111010111010111010101010,
#SCROLL 0.75
111011101010111011101010,
#SCROLL 0.7
111010111010111020211120,
#SCROLL 0.65
211021101010221022101010,
#SCROLL 0.6
111010111010111010101010,
#SCROLL 0.55
111011101010111011101010,
#END

COURSE:Oni
LEVEL:7
BALLOON:66
SCOREINIT:600
SCOREDIFF:158
#START
1110,
110110,
100000100000100022200020,
110220,
1110,
110110,
100000100000100022200020,
,
1111201111112011,
1111201111112011,
1111201111112011,
0030000030001110,
0011201111112011,
1111201111112011,
1111201111112011,
#MEASURE 7/8
00300000300011,
000000300000000000000000500000000008000000,
#MEASURE 4/4
3,
1100110000004000,
1011101000102000,
0010200010111000,
1011101000102000,
10101013,
0011101000102000,
0010200010111000,
500000000000000008000000500000000008000000300000,
00030111,
1011101000102000,
0010200010111000,
1011101000102000,
10101013,
0011101000102000,
0010200010111000,
500000000000000008000000500000000008000000300000,
00030111,
1222,
2222,
1222,
2222,
1222,
2222,
1000200020220220,
2202202011111000,
34,
33004000,
34,
33004000,
3,
,
,
,
7,
,
,
0083,
#GOGOSTART
1212121212121212,
1212121212121212,
1212121212121212,
1212121212121000,
1111201111112011,
1111201111112011,
1111201111112011,
0030000030001110,
0011211111112111,
1111211111112111,
1111211111112111,
#MEASURE 7/8
00300000300011,
000000300000000000000000500000000008000000,
#MEASURE 4/4
3,
#GOGOEND
1100110000004000,
1110,
110110,
100000100000100022200020,
110220,
1110,
110110,
100000100000100022200020,
212111212111,
1110,
110110,
#END

COURSE:Hard
LEVEL:7
BALLOON:44
SCOREINIT:630
SCOREDIFF:140
#START
1110,
110110,
100100100202,
110220,
1110,
110110,
100100100202,
,
1111200011112000,
1111200011112000,
1111200011112010,
0030000030001110,
0011200011112000,
1111200011112000,
1111200011112010,
#MEASURE 7/8
00300000300011,
000000300000000000000000500000000008000000,
#MEASURE 4/4
3,
1100110000004000,
1011101000102000,
0010200010111000,
1011101000102000,
10101013,
0011101000102000,
0010200010111000,
500000000000000008000000500000000008000000300000,
00030111,
1011101000102000,
0010200010111000,
1011101000102000,
10101013,
0011101000102000,
0010200010111000,
500000000000000008000000500000000008000000300000,
00030111,
1222,
20202021,
1222,
2222,
1222,
20202021,
1000200020220220,
2202202010000000,
34,
33004000,
34,
33004000,
3,
,
,
,
7,
,
,
0083,//55
#GOGOSTART
1111,
1111,
11111111,
1212121212121000,
1111200011112000,
1111200011112000,
1111200011112010,
0030000030001110,
0011220011112200,
1111220011112200,
1111220011112200,
#MEASURE 7/8
00300000300011,
000000300000000000000000500000000008000000,
#MEASURE 4/4
3,//69
#GOGOEND
1100110000004000,
1110,
110110,
100100100202,
110220,
1110,
110110,
100100100202,
212100212100,
1110,
110110,
,
,
,
#END

COURSE:Normal
LEVEL:7
BALLOON:42
SCOREINIT:700
SCOREDIFF:180
#START
1110,
110110,
1110,
110220,
1110,
110110,
1110,
,
1110000000111000,
1110000000111000,
1110000000111000,
01001003,
0000000000111000,
1110000000111000,
1110000000111000,
#MEASURE 7/8
0300300,
0300300,
#MEASURE 4/4
3,
1100110000004000,
00101100,
01021110,
00101100,
10101013,
00101100,
01002110,
10001003,
00030000,
00101100,
01002110,
00101100,
10101013,
00101100,
01021110,
10001003,
00030000,
1222,
2222,
1222,
2220,
1222,
2222,
1222,
2210,
34,
33004000,
34,
33004000,
3,
,
,
,
7,
,
,
0083,//55
#GOGOSTART
1111,
1111,
11111111,
11111120,
1110000000111000,
1110000000111000,
1110000000111000,
01001003,
0000000000111000,
1110000000111000,
1110000000111000,
#MEASURE 7/8
0300300,
0300300,
#MEASURE 4/4
3,//69
#GOGOEND
1100110000004000,
1110,
110110,
1110,
110220,
1110,
110110,
1110,
110220,
1110,
110110,
,
,
,
#END

COURSE:Easy
LEVEL:3
BALLOON:14
SCOREINIT:810
SCOREDIFF:240
#START
3,
110000,
1110,
100110,
1,
110000,
1110,
,
1,
1100,
1100,
00000001,
,
1100,
1100,
#MEASURE 7/8
0100100,
0100100,
#MEASURE 4/4
3,
1103,
0110,
0110,
12,
500000000000000000000000000000000008000000000000,
0110,
0110,
11,
500000000000000000000000000000000008000000000000,
0110,
0110,
12,
500000000000000000000000000000000008000000000000,
0110,
12,
11,
500000000000000000000000000000000008000000000000,
1002,
0202,
1002,
0202,
1002,
0202,
1002,
0200,
3,
3,
34,
34,
3,
,
,
,
7,
,
,
08,//55
#GOGOSTART
2222,
2222,
2222,
500000000000000000000000000000000008000000000000,
1,
1100,
1100,
00000001,
,
1100,
1100,
#MEASURE 7/8
0100100,
500000000000000000000000000008000000000000,
#MEASURE 4/4
3,//69
#GOGOEND
1103,
,
110000,
1110,
110110,
3,
110000,
1110,
110110,
3,
,
,
,
,
#END
