//TJADB Project
TITLE:Shimedore 2000
TITLEJA:〆ドレー2000
SUBTITLE:--Linda AI-CUE
BPM:200
WAVE:Shimedore 2000.ogg
OFFSET:-1.521
DEMOSTART:2.704

COURSE:Oni
LEVEL:10
SCOREINIT:280
SCOREDIFF:60
#START
,
10201120,
1011201020101120,
20102212,
1020112110102000,
10201121,
2010201011102010,
2022102020102010,
#BPMCHANGE 199.31
1012221210201020,
#BPMCHANGE 250
10201120,
1011201020101120,
20102212,
1020112110102000,
10201121,
2010201011102010,
2022102020102010,
#BPMCHANGE 248.75
1012221210201020,
#BPMCHANGE 250
#MEASURE 8/4
100000001000100000002000100000001000200000001000200000002000100000002000100000100000200000000000,
102102101201202102111200,
100000001000100000002000100000001000200000001000200000002000100000002000100000100000200000000000,
102102101201
#SCROLL 0.99
#BPMCHANGE 251.8
202102111200,
#MEASURE 4/4
#SCROLL 1
#BPMCHANGE 199.83
1110222011102220,
1110222011102220,
1111222211112222,
1110202011111020,
1111222011112220,
1111222011112220,
1122112211221122,
1010101011111110,
#BPMCHANGE 188.21
#MEASURE 3/4
100220,
#SCROLL 1.01
#BPMCHANGE 185.4
202,
#BPMCHANGE 186.52
102012201020,
#SCROLL 1
#BPMCHANGE 188.49
102012121220,
102012201020,
#SCROLL 1.02
#BPMCHANGE 183.95
121112,
112111201020,
#SCROLL 1.01
#BPMCHANGE 186.48
112111201020,
102012101020,
102012101110,
102012101020,
#BPMCHANGE 185.87
102012121220,
112011201120,
112011201120,
#SCROLL 1.03
#BPMCHANGE 182.53
#MEASURE 4/4
112211211122
#BPMCHANGE 188.3
#SCROLL 1
1121,
#BPMCHANGE 170.54
#SCROLL 1.1
#MEASURE 2/4
11221122,
#BPMCHANGE 170
#MEASURE 4/4
#SCROLL 1.11
1011112010111220,
1011222010122220,
1121101212102121,
2022122022222000,
1022221010222110,
1022111010211110,
1201122011122210,
1112222011112222,
#BPMCHANGE 177.65
#SCROLL 1.06
#MEASURE 8/4
1,
#SCROLL 0.5
#MEASURE 4/4
,
#SCROLL 0.6
1111,
#SCROLL 0.7
1111,
#SCROLL 0.8
11111111,
#SCROLL 0.9
2121211121212111,
21212110
#BPMCHANGE 220.9
#SCROLL 0.72
40000000,
#MEASURE 5/4
#BPMCHANGE 222
#SCROLL 1
10201020101220101202,
#MEASURE 4/4
1020102210102210,
#MEASURE 3/4
201012201022,
#MEASURE 5/4
10221020101220101202,
10201022101022101202,
#MEASURE 3/4
100100111011,
#MEASURE 5/4
10201020101220101202,
#MEASURE 4/4
1020102210102210,
#MEASURE 3/4
201012201022,
#MEASURE 5/4
10201020101220101202,
10201022101022101020,
#MEASURE 3/4
122122111211,
#MEASURE 5/4
10111010101220111011,
#MEASURE 4/4
1110122011012011,
#MEASURE 3/4
101110002111,
#MEASURE 5/4
11210111112120111211,
#BPMCHANGE 222.2
10111210111210101010,
#BPMCHANGE 220.6
#MEASURE 3/4
122012201220,
#BPMCHANGE 222.41
#SCROLL 4
#MEASURE 4/4
30003303,
#SCROLL 6
1010101110003000,
#BPMCHANGE 220
#SCROLL 1
,
22202020,
1022201022201020,
1110201022201020,
1110111011221020,
1011102012221222,
1022201022201020,
1110201022201020,
1110111011101110,
1011102012221222,
0004,
500000000000000000000000000000000000000000000008,
#MEASURE 5/4
#SCROLL 1.22
#BPMCHANGE 179.57
0000
#SCROLL 1
3,
#BPMCHANGE 180
#MEASURE 4/4
02021020,
#MEASURE 3/4
100000202020200000100000202020200000,
100100202020200000100100202020200000,
101010200000101010200000100000101010,
#MEASURE 4/4
1000202010002220,
100000000000200200200000200200200000202020200000,
1000222010002220,
100000000000100000000000202020200000202020200000,
1000222010002220,
#BPMCHANGE 180.76
100000000000100200200200100200200100202020100000,
#BPMCHANGE 194
1111222220002000,
100000000000500000000000000008000000100000000000,
1111222220002020,
10112022,
1111222220002220,
1111222220222020,
#MEASURE 3/4
221210221210,
221210221212,
112211202212,
121210221210,
221210221212,
112211202212,
121210221210,
221210221210,
221210221210,
221210221210,
#BPMCHANGE 189.68
#MEASURE 4/4
1121121011211210,
#BPMCHANGE 190
1112102011121020,
1111111011111110,
1121202011212020,
1121211030003000,
1121202211212022,
1111121011111210,
1121202211212020,
#SCROLL 1.02
#BPMCHANGE 186.19
3003003003003030,
#BPMCHANGE 320
#SCROLL 0.5
#MEASURE 8/4
11101010202020201110101020202020,
11101020202020201110202020002000,
11101010202010101110101020201010,
22202020101010102220202010101010,
11101010202020201110101020202020,
11102020111020201110111010002000,
11102020111020201020102010201020,
1022202010222020
#BPMCHANGE 323.12
1110101020004000,
#BPMCHANGE 327.94
1110102011101020
#BPMCHANGE 320.37
1000300030000000,
#BPMCHANGE 154
#SCROLL 1
#MEASURE 4/4
,
#GOGOSTART
1110000030000000,
1110000030000000,
1110201110201120,
#MEASURE 4/4
2000300000300000,//142
#GOGOEND
#END

COURSE:Hard
LEVEL:8
BALLOON:5,6,6,4,5
SCOREINIT:260
SCOREDIFF:60
#START
,
10201120,
11212120,
20102210,
12121120,
10201120,
11212120,
20102210,
#BPMCHANGE 199.31
12121120,
#BPMCHANGE 250
10201120,
11212120,
20102210,
12121120,
10201120,
11212120,
20102210,
#BPMCHANGE 248.75
12121120,
#BPMCHANGE 250
#MEASURE 8/4
1111110111011110,
1111110111011110,
1111120112011120,
11111201
#SCROLL 0.99
#BPMCHANGE 251.8
12011120,
#SCROLL 1
#MEASURE 4/4
#BPMCHANGE 199.83
12121212,
1110111011101000,
12121212,
1110111011101000,
1010111010101020,
1010111010101000,
1010202011101020,
1010101011111000,
#BPMCHANGE 188.21
#MEASURE 3/4
100220,
#SCROLL 1.01
#BPMCHANGE 185.4
202,
#BPMCHANGE 186.52
101011102020,
#SCROLL 1
#BPMCHANGE 188.49
101011102000,
101011102020,
#SCROLL 1.02
#BPMCHANGE 183.95
101011102000,
333,
#SCROLL 1.01
#BPMCHANGE 186.48
333,
101022201010,
101022201000,
101022201010,
#BPMCHANGE 185.87
101022201000,
121212,
121212,
#SCROLL 1.03
#BPMCHANGE 182.53
#MEASURE 4/4
333
#SCROLL 1
#BPMCHANGE 188.3
3,
#BPMCHANGE 170.54
#SCROLL 1.1
#MEASURE 2/4
3333,
#BPMCHANGE 170
#MEASURE 4/4
#SCROLL 1.11
1011101110101011,
1011101010111000,
2022202220202022,
2022202020222000,
1011202010201000,
1011202010201000,
11221122,
1010200011111111,
#BPMCHANGE 177.6
#SCROLL 1.05
#MEASURE 8/4
1,
#SCROLL 0.5
#MEASURE 4/4
,
#SCROLL 0.6
1111,
#SCROLL 0.7
1111,
#SCROLL 0.8
11111111,
#SCROLL 0.9
11111111,
#BARLINEOFF
#MEASURE 2/4
11101110,
#BPMCHANGE 222
#SCROLL 0.72
3,
#BARLINEON
#SCROLL 1
#MEASURE 5/4
10201020101110101000,
#MEASURE 4/4
12121121,
#MEASURE 3/4
201011101000,
#MEASURE 5/4
10201020101110101000,
10201020101022201000,
#MEASURE 3/4
111000111000,
#MEASURE 5/4
10201020101110101000,
#MEASURE 4/4
12121121,
#MEASURE 3/4
201011101000,
#MEASURE 5/4
10201020102220101000,
10201020101022201000,
#MEASURE 3/4
111000111000,
#MEASURE 5/4
10111010102220101000,
#MEASURE 4/4
1011101010222010,
#MEASURE 3/4
101110201000,
#MEASURE 5/4
11101110222011101110,
#BPMCHANGE 222.2
11102220111011101110,
#BPMCHANGE 220.6
#MEASURE 3/4
222011101110,
#BPMCHANGE 222.41
#MEASURE 4/4
30003303,
1010101110000000,
#BPMCHANGE 220
#SCROLL 1
,
22202020,
1010202011101000,
1010202011101000,
1011101011102020,
1010202022222000,
1010202011101000,
1010202011101000,
1011101011102220,
1010202022202222,
0004,
500000000000000000000000000000000000000000000008,
#SCROLL 1.22
#BPMCHANGE 179.57
#MEASURE 5/4
,
#SCROLL 1
#BPMCHANGE 180
#MEASURE 4/4
02021020,
#MEASURE 3/4
100100,
102220102220,
101011,
#MEASURE 4/4
1000222010002220,
1000200022202220,
1000222010002220,
1000100022202220,
1000222010002220,
#BPMCHANGE 180.76
1000200022202220,
#BPMCHANGE 194
1110111020000000,
100000000000500000000000000000000008000000000000,
1110111020002000,
10112020,
1110222020002000,
1110222020002000,
#MEASURE 3/4
201120001120,
001120001120,
343401,
201120001120,
001120001120,
343434,
001120001120,
001120001120,
001120001120,
001120001120,
#BPMCHANGE 189.68
#MEASURE 4/4
3003003030030030,
#BPMCHANGE 190
1011101010111000,
1111100011111000,
1011101010111000,
1111100030003000,
1011101010111000,
1111100011111000,
1011101010111000,
#SCROLL 1.02
#BPMCHANGE 186.19
3003003003003030,
#BPMCHANGE 320
#SCROLL 0.5
#MEASURE 8/4
1011101110111010,
2022202070000080,
1022102010221000,
1110202011102000,
1111101022222000,
1111111012121000,
1011101110222020,
10221020
#BPMCHANGE 323.12
10222000,
#BPMCHANGE 327.94
11101110
#BPMCHANGE 320.37
30303000,
#BPMCHANGE 154
#SCROLL 1
#MEASURE 4/4
,
#GOGOSTART
70083020,
70083000,
1020201020201022,
20300300,//142
#GOGOEND
,
,
,
#END

COURSE:Normal
LEVEL:7
BALLOON:13,3,3,20
SCOREINIT:420
SCOREDIFF:90
#START
,
1212,
11111000,
2121,
11111000,
10101110,
11101110,
10101111,
#BPMCHANGE 199.31
10111030,
#BPMCHANGE 250
1212,
11111000,
2121,
11111000,
10101110,
11101110,
10101111,
#BPMCHANGE 248.75
10111030,
#BPMCHANGE 250
#MEASURE 8/4
1000110010011000,
1000110010011000,
1000110010011000,
10001100
#SCROLL 0.99
#BPMCHANGE 251.8
10011000,
#SCROLL 1
#MEASURE 4/4
#BPMCHANGE 199.83
11201120,
10101120,
11201120,
10101120,
1000000011100000,
1000000011100000,
1000000011100000,
1000100011100000,
#BPMCHANGE 188.21
#MEASURE 3/4
100220,
#SCROLL 1.01
#BPMCHANGE 185.4
1,
#BPMCHANGE 186.52
100220,
#SCROLL 1
#BPMCHANGE 188.49
1,
100220,
#SCROLL 1.02
#BPMCHANGE 183.95
111,
222,
#SCROLL 1.01
#BPMCHANGE 186.48
333,
100220,
100220,
100220,
#BPMCHANGE 185.87
1,
100220,
111,
#SCROLL 1.03
#BPMCHANGE 182.53
#MEASURE 4/4
333
#SCROLL 1
#BPMCHANGE 188.3
3,
#BPMCHANGE 170.54
#SCROLL 1.1
#MEASURE 2/4
2222,
#BPMCHANGE 170
#SCROLL 1.11
#MEASURE 4/4
500000000000000000000000000000000008000000000000,
500000000000000000000000000000000008000000000000,
9000,
9080,
1011100010000000,
1011100010000000,
11101110,
1010100011101110,
#BPMCHANGE 177.6
#SCROLL 1.05
#MEASURE 8/4
1,
#SCROLL 0.5
#MEASURE 4/4
,
#SCROLL 0.6
1,
#SCROLL 0.7
1,
#SCROLL 0.8
11,
#SCROLL 0.9
11,
#BARLINEOFF
#MEASURE 2/4
11,
#BPMCHANGE 222
#SCROLL 0.72
3,
#BARLINEON
#SCROLL 1.0
#MEASURE 5/4
1010110110,
#MEASURE 4/4
10101101,
#MEASURE 3/4
011000,
#MEASURE 5/4
1010110110,
1010110110,
#MEASURE 3/4
3,
#MEASURE 5/4
1010110110,
#MEASURE 4/4
10101101,
#MEASURE 3/4
011000,
#MEASURE 5/4
1010110110,
1010110110,
#MEASURE 3/4
3,
#MEASURE 5/4
1010110110,
#MEASURE 4/4
10101101,
#MEASURE 3/4
011000,
#MEASURE 5/4
1010110110,
#BPMCHANGE 222.2
1010110101,
#BPMCHANGE 220.6
#MEASURE 3/4
1,
#BPMCHANGE 222.41
#MEASURE 4/4
30003303,
3110,
#BPMCHANGE 220
#SCROLL 1
3,
2220,
1111,
10111000,
1111,
10111000,
10101110,
10111000,
10101110,
10111010,
0004,
500000000000000000000000000000000000000000000008,
#MEASURE 5/4
#BPMCHANGE 179.57
#SCROLL 1.22
,
#SCROLL 1
#BPMCHANGE 180
#MEASURE 4/4
11011000,
#MEASURE 3/4
11,
11,
111,
#MEASURE 4/4
1,
,
11,
1100,
11,
#BPMCHANGE 180.76
500000000000000000000000000000000008000000000000,
#BPMCHANGE 194
10111000,
100000000000500000000000000000000008000000000000,
10111000,
10111000,
10111000,
10111000,
#MEASURE 3/4
011011,
011011,
111101,
011011,
011011,
111101,
011011,
011011,
011011,
011011,
#BPMCHANGE 189.68
#MEASURE 4/4
33,
#BPMCHANGE 190
11101010,
11101000,
11101010,
11103000,
11101010,
11101000,
11101010,
#SCROLL 1.02
#BPMCHANGE 186.19
33,
#BPMCHANGE 320
#SCROLL 0.5
#MEASURE 8/4
11101110,
22202000,
11101110,
22202000,
5,
,
,
000000000000000000000000000000000000000000000000
#BPMCHANGE 323.12
000000000000000000000008000000000000000000000000,
#BPMCHANGE 327.94
1110
#BPMCHANGE 320.37
3330,
#BPMCHANGE 154
#SCROLL 1
#MEASURE 4/4
,
#GOGOSTART
1032,
1032,
500000000000000000000000000000000008000000000000,
00300300,//142
#GOGOEND
,
,
,
#END

COURSE:Easy
LEVEL:5
BALLOON:9,3,3,22,16
SCOREINIT:270
SCOREDIFF:60
#START
,
1212,
1120,
2121,
1120,
1212,
1120,
2121,
#BPMCHANGE 199.31
500000000000000000000000000000000008000000000000,
#BPMCHANGE 250
1212,
1120,
2121,
1120,
1212,
1120,
2121,
#BPMCHANGE 248.75
500000000000000000000000000000000008000000000000,
#BPMCHANGE 250
#MEASURE 8/4
11101110,
11101010,
11101110,
1110
#SCROLL 0.99
#BPMCHANGE 251.8
1010,
#SCROLL 1
#MEASURE 4/4
#BPMCHANGE 199.83
11101110,
1110,
22202220,
2220,
11,
11,
1111,
1111,
#BPMCHANGE 188.21
#MEASURE 3/4
100110,
#SCROLL 1.01
#BPMCHANGE 185.4
1,
#BPMCHANGE 186.52
100220,
#SCROLL 1
#BPMCHANGE 188.49
122,
100220,
#SCROLL 1.02
#BPMCHANGE 183.95
1,
333,
#SCROLL 1.01
#BPMCHANGE 186.48
330,
100220,
122,
100220,
#BPMCHANGE 185.87
1,
100220,
1,
#BPMCHANGE 182.53
#MEASURE 4/4
#SCROLL 1.03
333
#BPMCHANGE 170.54
#SCROLL 1.1
3,
#BPMCHANGE 170
#SCROLL 1.11
#MEASURE 2/4
3,
#MEASURE 4/4
500000000000000000000000000000000008000000000000,
500000000000000000000000000000000008000000000000,
7000,
0080,
1111,
11101000,
1111,
10101111,
#BPMCHANGE 177.6
#SCROLL 1.05
#MEASURE 8/4
1,
#SCROLL 0.5
#MEASURE 4/4
,
#SCROLL 0.6
1,
#SCROLL 0.7
1,
#SCROLL 0.8
1,
#SCROLL 0.9
1,
#BARLINEOFF
#MEASURE 2/4
1,
#BPMCHANGE 222
#SCROLL 0.72
3,
#BARLINEON
#SCROLL 1.0
#MEASURE 5/4
1010110100,
#MEASURE 4/4
10101101,
#MEASURE 3/4
,
#MEASURE 5/4
1010110100,
1010110100,
#MEASURE 3/4
3,
#MEASURE 5/4
1010110100,
#MEASURE 4/4
10101101,
#MEASURE 3/4
,
#MEASURE 5/4
1010110100,
1010110100,
#MEASURE 3/4
4,
#MEASURE 5/4
1010110100,
#MEASURE 4/4
10101101,
#MEASURE 3/4
,
#MEASURE 5/4
1010110100,
#BPMCHANGE 222.2
1010110100,
#BPMCHANGE 220.6
#MEASURE 3/4
,
#BPMCHANGE 222.41
#MEASURE 4/4
33,
1110,
#BPMCHANGE 220
#SCROLL 1
3,
22,
1110,
1110,
1110,
1110,
2220,
2220,
2220,
2222,
0004,
500000000000000000000000000000000000000000000008,
#MEASURE 5/4
#SCROLL 1.22
#BPMCHANGE 179.57
,
#SCROLL 1
#BPMCHANGE 180
#MEASURE 4/4
1,
#MEASURE 3/4
11,
11,
1,
#MEASURE 4/4
1,
,
0101,
0101,
0202,
#BPMCHANGE 180.76
500000000000000000000000000000000008000000000000,
#BPMCHANGE 194
1110,
100000000000500000000000000000000008000000000000,
1120,
1120,
1220,
1220,
#MEASURE 3/4
111,
111,
333,
111,
111,
333,
111,
111,
111,
111,
#BPMCHANGE 189.68
#MEASURE 4/4
33,
#BPMCHANGE 190
1111,
1111,
1111,
1130,
1111,
1111,
1111,
#SCROLL 1.02
#BPMCHANGE 186.19
33,
#BPMCHANGE 320
#SCROLL 0.5
#MEASURE 8/4
1111,
2220,
1111,
2220,
5,
,
,
000000000000000000000000000000000000000000000000
#BPMCHANGE 323.12
000000000000000000000008000000000000000000000000,
#BPMCHANGE 327.94
11
#BPMCHANGE 320.37
33,
#BPMCHANGE 154
#SCROLL 1.0
#MEASURE 4/4
,
#GOGOSTART
13,
13,
500000000000000000000000000000000000000000000008,
00300300,//142
#GOGOEND
,
,
,
#END
