//TJADB Project
TITLE:Memeshikute
TITLEJA:女々しくて
SUBTITLE:--Golden Bomber
SUBTITLEJA:ゴールデンボンバー
BPM:143
WAVE:Memeshikute.ogg
OFFSET:-2.053
DEMOSTART:2.048

COURSE:Oni
LEVEL:8
BALLOON:12,4,4,12
SCOREINIT:620
SCOREDIFF:160
#START
#GOGOSTART
1121201121201121,
2000300040040040,
6,
000000000000000000000000000000000000000000000008,
,
33,
3011111011112000,
3011122011222000,
3012222022222000,
600000000000000008000000400000300000300000300000,
#GOGOEND
0010202010020010,
0010202010020010,
0010202010020010,
01210144,
0010202010020010,
0010202010020010,
0010202010020010,
01404040,
1011201000102011,
1011201000202010,
1011201000102011,
1011201000202010,
1011201010112010,
1011201010112050,
000000000000000000000000000000000008000000300000,
3003003030004000,
#GOGOSTART
1011202210112022,
1011202210112000,
1011202210112022,
1011201120004000,
1011202210112022,
1011202210112000,
1022102010221020,
1022102210221020,
7008,
1121201121200000,
1022102110700080,
1121201121200000,
1022102110700080,
1121201121200000,
1022102010221020,
1022102210221020,
7008,
1121201121201121,
2000300040040040,
6,
000000000000000000000000000000000000000000000008,
,
33,
3011111011112000,
3011122011222000,
3012222022222000,
600000000000000008000000400000300000300000300000,
43343346,
,
000000000000000000000000000000000000000008000000,
#GOGOEND
#END

COURSE:Hard
LEVEL:5
BALLOON:26,10,10,26
SCOREINIT:820
SCOREDIFF:180
#START
#GOGOSTART
1110101110101110,
1000000030030030,
9,
09,
8,
,
1011100010101000,
1011100010101000,
1011100010101000,
40001111,//10
#GOGOEND
10201120,
10201120,
10201120,
11220120,
10201120,
10201120,
10201120,
11220120,
10200120,
10200220,
10200120,
10200220,
10201120,
10210125,
000000000000000000000000000008000000000000300000,
3003003030000000,//26
#GOGOSTART
1000100010111000,
1011100010102000,
1000100010111000,
1011100040004000,
1000100010111000,
1011100010102000,
1000100010111000,
7008,
7008,
1110101110100000,
100000000000100000000000500000000008000000000000,
1110101110100000,
200000000000200000000000500000000008000000000000,
1110101110100000,
1000100010111000,
1000100010111000,
500000000000000000000000000000000008000000000000,
1110101110101110,
1000000030030030,
9,
09,
8,
,
1011100010101000,
1011100010101000,
1011100010101000,
40001111,
30430436,
,
000000000000000000000000000000000000000000800000,//56
#GOGOEND
,
,
,
#END

COURSE:Normal
LEVEL:4
BALLOON:20,6,6,20
SCOREINIT:890
SCOREDIFF:230
#START
#GOGOSTART
30030030,
3033,
9,
09,
8,
,
10101110,
10102220,
10101110,
500000000000000000000008000000000000000000000000,//10
#GOGOEND
1012,
1012,
1012,
12,
1012,
1012,
1012,
12,
1102,
10100220,
1102,
10100220,
10101110,
10101110,
500000000000000000000000000008000000000000300000,
3330,//26
#GOGOSTART
10101110,
11102220,
10101110,
500000000000000000000008000000000000000000000000,
10101110,
11102220,
10101110,
7008,
7008,
30030000,
100000000000100000000000500000000008000000000000,
30030000,
200000000000200000000000500000000008000000000000,
30030000,
10101110,
10101110,
500000000000000000000000000000000008000000000000,
30030030,
3033,
9,
09,
8,
,
10101110,
10102220,
10101110,
500000000000000000000008000000000000000000000000,
30030036,
,
000000000000000000000000000000000008000000000000,//56
#GOGOEND
,
,
,
#END

COURSE:Easy
LEVEL:3
BALLOON:12,4,4,12
SCOREINIT:770
SCOREDIFF:220
#START
#GOGOSTART
30030030,
3033,
9,
09,
8,
,
11,
22,
11,
500000000000000000000008000000000000000000000000,//10
#GOGOEND
1011,
1011,
1011,
1,
1011,
1011,
1011,
1,
12,
1011,
12,
1011,
12,
12,
500000000000000000000000000008000000000000000000,
3330,//26
#GOGOSTART
1110,
2220,
1110,
500000000000000000000008000000000000000000000000,
1110,
2220,
1110,
7008,
7008,
30030000,
1110,
30030000,
2220,
30030000,
1110,
1122,
500000000000000000000000000008000000000000000000,
30030030,
3033,
9,
09,
8,
,
11,
22,
11,
1110,
30030036,
,
000000000000000000000000000000000000000008000000,//56
#GOGOEND
,
,
,
#END
