//TJADB Project
TITLE:Heavy Rotation
TITLEJA:ヘビーローテーション
SUBTITLE:--AKB48
BPM:178
WAVE:Heavy Rotation.ogg
OFFSET:-1.553
DEMOSTART:7.620

COURSE:Oni
LEVEL:6
SCOREINIT:550
SCOREDIFF:140
#START
,
11021102,
11020101,
11021104,
0040300011102000,
500000000000000008000000100100100000200000000000,
500000000000000008000000100100100000200000200000,
500000000000000008000000100100100000200000200000,
500000000000000008000000100100100000200200200000,
500000000000000008000000100100100000200200200000,
500000000000000008000000100100100000200000200000,
12221222,
1020102011102000,
1212,
11201120,
1110201011102010,
10201120,
11,
3434,
1110111011102000,
11221212,
1110200011102020,
1110201000000000,
1110111011102000,
1110202011102020,
11221212,
33330000,
10201120,
10210120,
10201120,
10210120,
10201120,
10201120,
12121212,
500000000000000000000000000000000008000000000000,
1010200011102000,
1010200011102020,
1010200011102000,
1010202011102020,
1010200011102010,
1010200011102010,
1010202011102020,
1020102011102000,
12,
12012010,
11,
1212,
12121212,
1110202011102020,
500000000000000000000000000000000008000000000000,
33301010,//51
#GOGOSTART
500000000000000008000000100100100000200000000000,
500000000000000008000000100100100000200000200000,
500000000000000008000000100100100000200000200000,
500000000000000008000000100100100000200200200000,
500000000000000008000000100100100000200200200000,
500000000000000008000000100100100000200000200000,
12221222,
1020102011102000,
1212,
11201120,
1110201011102010,
1011,
1000200011102020,
3434,
600000000000000000000000000000000000000000000008,
0000000011101000,
500000000000000008000000100000200000100100100000,
1020102010201110,
500000000000000008000000100000100000200200200000,
1020102010201110,
500000000000000008000000100000100000200200200000,
1020102011102020,
12221222,
1020102011102000,
1110202011102020,
11201120,
1110202011102020,
10201120,
1000200011102000,
3434,
11021102,
11020100,
11021102,
02104030,//85
#GOGOEND
#END

COURSE:Hard
LEVEL:3
SCOREINIT:540
SCOREDIFF:145
#START
,//1
11001100,
11010100,
11001103,
03301010,
5,
000000000008000000000000100000000000100000000000,
5,
000000000008000000000000100000000000100000000000,
5,
000000000008000000000000100000000000100000000000,
11,
11,
#SECTION
#BRANCHSTART p,75,85
#N
10201120,
10201120,
11101110,
1001,
11,
3434,
#E
10201120,
1212,
11201120,
10001120,
11,
3434,
#M
10201120,
11201120,
1110200011102000,
10201120,
11,
3434,
#SECTION
#BRANCHSTART p,75,85
#N
3001,
1212,
1221,
11,
1001,
1212,
1221,
33330000,
#E
30001120,
10201120,
11201120,
10210000,
10201120,
10201120,
11201120,
33330000,
#M
30001120,
11201120,
11221120,
10210000,
10201120,
11201120,
11221120,
33330000,
#SECTION
#BRANCHSTART p,75,85
#N
10201120,
10210120,
10201120,
10210120,
10201120,
10201120,
10201100,
500000000000000000000000000000000008000000000000,
#E
10201120,
10210120,
10201120,
10210120,
10201120,
10201120,
10201120,
500000000000000000000000000000000008000000000000,
#M
10201120,
10210121,
10201120,
10210121,
10201120,
10201120,
10201121,
500000000000000000000000000000000008000000000000,
#SECTION
#BRANCHSTART p,75,85
#N
10201120,
10210120,
10201120,
10210120,
10201120,
10201120,
11,
11,
#E
10201120,
10210120,
10201120,
10210120,
10201120,
10201120,
10201120,
1210,
#M
10201120,
10210121,
10201120,
10210121,
10201120,
10201120,
10201120,
1000200011102000,
#SECTION
#BRANCHSTART p,75,85
#N
10012010,
10102110,
10012010,
1011,
10201120,
10201120,
500000000000000000000000000000000008000000000000,
3011,//N51
#E
10012010,
10102110,
10012010,
1011,
11201120,
11201120,
500000000000000000000000000000000008000000000000,
3011,//E51
#M
10012010,
10102110,
10012010,
1011,
11201120,
11201120,
500000000000000000000000000000000008000000000000,
3011,//M51
#SECTION
#BRANCHSTART p,75,85
#N
#GOGOSTART
5,
000000000008000000000000100000000000100000000000,
5,
000000000008000000000000100000000000100000000000,
5,
000000000008000000000000100000000000100000000000,
11,
11,
10201120,
10201120,
11101110,
1011,
10201120,
3434,
600000000000000000000000000000000000000000000008,
0011,
#E
#GOGOSTART
5,
000000000008000000000000100000000000100000000000,
5,
000000000008000000000000100000000000100000000000,
5,
000000000008000000000000100000000000100000000000,
10201120,
1010200011101000,
10201120,
10201120,
11201120,
1011,
10201120,
3434,
600000000000000000000000000000000000000000000008,
0011,
#M
#GOGOSTART
5,
000000000008000000000000100000000000100000000000,
5,
000000000008000000000000100000000000100000000000,
5,
000000000008000000000000100000000000100000000000,
10201120,
1010202011102000,
10201121,
10201121,
1110200011102000,
1011,
10201120,
3434,
600000000000000000000000000000000000000000000008,
0011,
#SECTION
#BRANCHSTART p,75,85
#N
500000000000000008000000300000000000300000000000,
600000000000000008000000100000000000100000000000,
500000000000000008000000300000000000300000000000,
600000000000000008000000100000000000100000000000,
500000000000000008000000300000000000300000000000,
600000000000000008000000100000000000100000000000,
11,
11,
10201120,
10201120,
11101110,
1001,
11,
3434,
3,
11010100,
11001101,
01103030,//N85
#GOGOEND
,
,
,
#E
500000000000000008000000300000000000300000000000,
600000000000000008000000100000000000100000000000,
500000000000000008000000300000000000300000000000,
600000000000000008000000100000000000100000000000,
500000000000000008000000300000000000300000000000,
600000000000000008000000100000000000100000000000,
10201120,
1010200011101000,
10201120,
11201120,
11201120,
10001120,
11,
3434,
30011101,
11010100,
11011101,
01103030,//E85
#GOGOEND
,
,
,
#M
500000000000000008000000300000000000300000000000,
600000000000000008000000100000000000100000000000,
500000000000000008000000300000000000300000000000,
600000000000000008000000100000000000100000000000,
500000000000000008000000300000000000300000000000,
600000000000000008000000100000000000100000000000,
10201120,
1010202011102000,
10201121,
11201121,
1110200011102000,
10201120,
11,
3434,
30011101,
11010100,
11011101,
01103030,//M85
#GOGOEND
,
,
,
#END

COURSE:Normal
LEVEL:3
SCOREINIT:680
SCOREDIFF:208
#START
,//1
11,
12,
11,
3011,
5,
000000000008000000000000100000000000100000000000,
5,
000000000008000000000000100000000000100000000000,
5,
000000000008000000000000100000000000100000000000,
11,
12,
11,
1111,
1011,
1001,
11,
3333,
3,
1212,
1111,
11,
1,
1212,
1111,
3,
10201110,
10110000,
10201110,
10110000,
10201110,
10201110,
1212,
500000000000000000000000000000000008000000000000,
10201110,
10110000,
10201110,
10110000,
10201110,
10201110,
11,
11,
12,
1111,
12,
1011,
1212,
11101110,
500000000000000000000000000000000008000000000000,
3011,//51
#GOGOSTART
5,
000000000008000000000000100000000000100000000000,
5,
000000000008000000000000100000000000100000000000,
5,
000000000008000000000000100000000000100000000000,
11,
12,
33,
10101110,
1111,
1011,
1,
33,
600000000000000000000000000000000000000000000008,
0011,
5,
000000000008000000000000100000000000100000000000,
5,
000000000008000000000000100000000000100000000000,
5,
000000000008000000000000100000000000100000000000,
11,
12,
33,
10101110,
1111,
1,
11,
3333,
3,
12,
11,
1033,//85
#GOGOEND
,
,
,
#END

COURSE:Easy
LEVEL:2
SCOREINIT:660
SCOREDIFF:248
#START
,//1
1,
1,
1,
3011,
5,
000008000000000000000000100000000000100000000000,
5,
000008000000000000000000100000000000100000000000,
5,
000008000000000000000000100000000000100000000000,
11,
12,
11,
1110,
11,
1,
11,
3033,
3,
1,
1110,
1,
1,
1110,
11,
3,
1,
1,
1,
2,
11,
1011,
11,
500000000000000000000000000008000000000000000000,
1,
1,
1,
2,
11,
1011,
11,
11,
1,
2,
12,
1,
11,
1110,
500000000000000000000000000008000000000000000000,
3011,//51
#GOGOSTART
5,
000008000000000000000000100000000000100000000000,
5,
000008000000000000000000100000000000100000000000,
5,
000008000000000000000000100000000000100000000000,
11,
12,
11,
1110,
1110,
11,
1,
33,
600000000000000000000000000000000000000000000008,
0011,
5,
000008000000000000000000100000000000100000000000,
5,
000008000000000000000000100000000000100000000000,
5,
000008000000000000000000100000000000100000000000,
11,
12,
11,
1110,
1110,
1,
11,
3330,
3,
12,
11,
13,//85
#GOGOEND
,
,
,
#END
