//TJADB Project
TITLE:Metal Police
TITLEJA:めたるぽりす
SUBTITLE:--Ojima
BPM:176
WAVE:Metal Police.ogg
OFFSET:-1.621
DEMOSTART:1.621

COURSE:Edit
LEVEL:9
SCOREINIT:440
SCOREDIFF:108
#START
#MEASURE 7/4
1011201011102010201111102010,
1011201011102010201011111020,
1011201011102010201111102010,
1011201011102010201011111020,
1011201010112010201111102110,
1011201010112010201011111020,
1011201010112010201111102110,
1011201010112010201011111020,
#MEASURE 3/4
112112,
112112,
111020111020,
112122,
112112,
112112,
111020111020,
340340,
111020101020,
111020101020,
101120101120,
111020102020,
111020101020,
111020101020,
101120101120,
121012101210,//24
#MEASURE 4/4
#GOGOSTART
1010111011111020,
1210201210201111,
1010111011111020,
#MEASURE 3/4
121210121210,
#MEASURE 4/4
1010111011111020,
1210201210201111,
1010111011111020,
#MEASURE 3/4
121210121210,
#MEASURE 4/4
1020112011112010,
2120102120101111,
1020112011112010,
#MEASURE 3/4
212120212120,
#MEASURE 4/4
1020112011112010,
2120102120101111,
1020112011112010,
#MEASURE 3/4
212120212120,//40
#GOGOEND
#MEASURE 7/4
1011101011101011101110101111,
1011101011101011101110101111,
1022202022202020222020202222,
2022202022202020222020202222,
#MEASURE 5/4
20102011102010201110,
10201011102010202110,
20102011102010201110,
100000200000100000100100100000200000200010001000200010001000,
10102110201020111020,
10202110102010211020,
10102110201020111020,
100000200000200100100000100000200000200010001000200010001000,//52
#GOGOSTART
#MEASURE 7/4
1011201010112010201111102110,
1011201010112010201011111020,
1011201010112010201111102110,
1011201010112010201011111020,
1011202110112010201121102110,
1011202110112010201021112020,
1011202110112010201121102110,
1011202110112010201021112020,//60
#GOGOEND
#MEASURE 3/4
303303,
3,
#END

COURSE:Oni
LEVEL:9
BALLOON:3,4,5,6
SCOREINIT:520
SCOREDIFF:133
#START
#MEASURE 7/4
11211121012121,
1010201010102010001020112020,
11211121011221,
1010201010102010001020112020,
11211121012121,
1010201010102010001020112020,
1010201010102010001010202111,
1010201010102010201120102020,
#MEASURE 3/4
110120,
110210,
110120,
210122,
110120,
110210,
110120,
101011202010,
101020112000,
101000201011,
210120,
101120102020,
101020112000,
101000201011,
201000112010,
230303,//24
#MEASURE 4/4
#GOGOSTART
2010202011221700,
8000201020201110,
21223040,
#MEASURE 3/4
001120102020,
#MEASURE 4/4
2010202011221700,
8000201020201110,
21221030,
#MEASURE 3/4
030122,
#MEASURE 4/4
2010202012212700,
80212211,
21223040,
#MEASURE 3/4
001120102020,
#MEASURE 4/4
2010202012212700,
8000201020201110,
2010202010004011,
#MEASURE 3/4
121112,//40
#GOGOEND
#MEASURE 7/4
1010202010102021101020201122,
1010202010102021101020201122,
1040304030403021104030401212,
1040304030403021104030401212,
#MEASURE 5/4
1010120222,
1010120211,
1010132322,
100000100000200100202010102010,
1121121221,
4121121222,
30102010102010202011,
200000100000200000100100100100200000200020001000100020001000,//52
#GOGOSTART
#MEASURE 7/4
1010201010102010001120102010,
1010201010102010001011122212,
1010201010102010001022212121,
1010201010102010001122112121,
2010401121104010401040102211,
2010401121104010401021112010,
2111201121104010401120102111,
2010401021112020121210201020,//60
#GOGOEND
#MEASURE 3/4
302303,
3,
#END

COURSE:Hard
LEVEL:7
BALLOON:8,8,8
SCOREINIT:650
SCOREDIFF:173
#START
#MEASURE 7/4
10201121011221,
10201121011220,
10201121011221,
10201121011221,
11201121011221,
11201121011220,
11201121011221,
11201121011220,
#MEASURE 3/4
110110,
110110,
110110,
110122,
110110,
110110,
110110,
130030,
110120,
110210,
110120,
110122,
110120,
110210,
101000112000,
130303,//24
#MEASURE 4/4
#GOGOSTART
3000300011105000,
000000000000000000000000000008000000000000000000,
10110010,
#MEASURE 3/4
001110102000,
#MEASURE 4/4
3000300011105000,
000000000000000000000000000008000000000000000000,
10110110,
#MEASURE 3/4
010000,
#MEASURE 4/4
3000300011107000,
00000800,
10110010,
#MEASURE 3/4
001110102000,
#MEASURE 4/4
3000300011107000,
00000800,
10110030,
#MEASURE 3/4
030000,//40
#GOGOEND
#MEASURE 7/4
1010202010102020101020201110,
1010202010102020101020201110,
1000200010002011100020001110,
1000200010002011100020001110,
#MEASURE 5/4
1010020100,
1010020111,
1010020100,
100000100000000200101010100000,
1010020100,
1010020111,
1010020100,
70080,//52
#GOGOSTART
#MEASURE 7/4
10201121011221,
10201121011220,
10201121011221,
10201121011221,
11211121011221,
11211121011220,
11211121011221,
11201121012121,//60
#GOGOEND
#MEASURE 3/4
300301,
3,
,
,
,
,
,
,
,
,
,
,
#END

COURSE:Normal
LEVEL:6
BALLOON:8,8,8,8
SCOREINIT:860
SCOREDIFF:260
#START
#MEASURE 7/4
10101011000000,
100000000000100000000000100000000000100000100000000500000000000000008000000000000000,
10101011000000,
100000000000100000000000100000000000100000100000000500000000000000008000000000000000,
10201111000000,
100000000000200000000000100000100000100000100000000500000000000000008000000000000000,
10201111000000,
100000000000200000000000100000100000100000100000000500000000000000008000000000000000,
#MEASURE 3/4
110100,
110100,
110100,
110000,
110100,
110100,
110100,
110000,
110200,
110200,
110200,
110000,
110200,
110200,
110200,
110000,//24
#MEASURE 4/4
#GOGOSTART
3305,
000000000000000000000000000008000000000000000000,
10110010,
#MEASURE 3/4
010,
#MEASURE 4/4
3305,
000000000000000000000000000008000000000000000000,
10110010,
#MEASURE 3/4
010000,
#MEASURE 4/4
3307,
00000800,
10110010,
#MEASURE 3/4
010,
#MEASURE 4/4
3307,
00000800,
10110010,
#MEASURE 3/4
010000,//40
#GOGOEND
#MEASURE 7/4
10102020101011,
10102020101011,
10201020102011,
10201020102011,
#MEASURE 5/4
1010020000,
1010020000,
1010020000,
1010020000,
1010020100,
1010020111,
1010020100,
70080,//52
#GOGOSTART
#MEASURE 7/4
10101111000000,
100000000000100000000000100000100000100000100000000500000000000000008000000000000000,
10101111000000,
100000000000100000000000100000100000100000100000000500000000000000008000000000000000,
10201122000000,
100000000000100000000000100000100000200000200000000500000000000000008000000000000000,
10201122000000,
10207000000800,//60
#GOGOEND
#MEASURE 3/4
300303,
3,
,
,
,
,
,
,
,
,
,
,
#END

COURSE:Easy
LEVEL:4
BALLOON:6,6,6,6
SCOREINIT:690
SCOREDIFF:245
#START
#MEASURE 7/4
10101001000000,
100000000000100000000000100000000000000000100000000500000000000000008000000000000000,
10101001000000,
100000000000100000000000100000000000000000100000000500000000000000008000000000000000,
10201001000000,
100000000000200000000000100000000000000000100000000500000000000000008000000000000000,
10201001000000,
100000000000200000000000100000000000000000100000000500000000000000008000000000000000,
#MEASURE 3/4
11,
11,
11,
1,
11,
11,
11,
1,
12,
11,
12,
1,
12,
11,
12,
1,//24
#MEASURE 4/4
#GOGOSTART
3305,
000000000000000000000000000008000000000000000000,
1101,
#MEASURE 3/4
,
#MEASURE 4/4
3305,
000000000000000000000000000008000000000000000000,
1101,
#MEASURE 3/4
,
#MEASURE 4/4
3307,
00000800,
1101,
#MEASURE 3/4
,
#MEASURE 4/4
3307,
00000800,
1101,
#MEASURE 3/4
,//40
#GOGOEND
#MEASURE 7/4
10001000100011,
10001000100011,
10001000100011,
10001000100011,
#MEASURE 5/4
12,
12,
12,
1,
1010020000,
1010020000,
1010020000,
70080,//52
#GOGOSTART
#MEASURE 7/4
10101001000000,
100000000000100000000000100000000000000000100000000500000000000000008000000000000000,
10101001000000,
100000000000100000000000100000000000000000100000000500000000000000008000000000000000,
10201002000000,
100000000000200000000000100000000000000000200000000500000000000000008000000000000000,
10201002000000,
10207000000800,//60
#GOGOEND
#MEASURE 3/4
33,
3,
,
,
,
,
,
,
,
,
,
,
#END
