//TJADB Project
TITLE:Kikyoku ~Seasons of Asia~
TITLEJA:季曲
SUBTITLE:--Chai Found Music Workshop
SUBTITLEJA:~Seasons of Asia~
BPM:150
WAVE:Kikyoku Seasons of Asia.ogg
OFFSET:-5.022
DEMOSTART:8.188

COURSE:Edit
LEVEL:8
BALLOON:28,32,14
SCOREINIT:420
SCOREDIFF:98
#START
7,
0008,//2
#GOGOSTART
1010201110201010,
0010201110200010,
1010201011202210,
1120221022112211,
1010201110201010,
0010201110200010,
1010201011202210,
1120221022112211,//10
#GOGOEND
1010201110102010,
0010201110202210,
0010201110200010,
0010201120112210,
1010201110102010,
0010201110202210,
0010201110200010,
0010201120122210,
1010201110102010,
0010201110202210,
0010201110200010,
0010201120112210,
1010201110102010,
0010201110202210,
0010201110200010,
0010201120122210,
1022201010222010,
2220201010222010,
1022201010222010,
2011201120111000,
1022201010222010,
2220201010222010,
1022102210221022,
1010101011111111,//34
#GOGOSTART
1010201110201010,
0010201110200010,
1010201011202210,
1120221022112211,
1010201110201010,
0010201110200010,
1010201011202210,
1010201022112210,
4000401110201120,
0010200010201120,
0010201110200010,
0010201120102222,
1122101122101120,
2211221120001020,
2011200010201120,
0010202210112010,//50
#GOGOEND
7,
0008,
,
,
1202,
10201120,
1202,
10201122,
1020201022201120,
1020201011201120,
1020201022201120,
1020201011201120,
1022201022201120,
1022201022201120,
2222222222222222,
7008,//66
#GOGOSTART
1010201110201010,
0010201110200010,
1010201011202210,
1120221022112211,
1010201110201010,
0010201110200010,
1010201011202210,
1010201022112210,
4000401110201120,
0010200010201120,
0010201110200010,
0010201120102222,
1122101122101120,
2211221120001020,
2011200010201120,
0010202210112010,//82
#GOGOEND
1020201022111020,
0020002010202022,
10101202,
0010101010202022,
1020201022111020,
0020002010202022,
12222112,
02011200,
3,
#END

COURSE:Oni
LEVEL:7
BALLOON:18,32
SCOREINIT:510
SCOREDIFF:130
#START
,
,//2
#GOGOSTART
10201120,
10211120,
10211121,
11212121,
10201120,
10211120,
10211121,
11212121,//10
#GOGOEND
10201101,
01201101,
01201201,
0010200020102022,
10201101,
01201101,
01201201,
0010100020102011,
10201101,
01201101,
01201201,
0010200020102022,
10201101,
01201101,
01201201,
0010100020102011,
11210211,
11210211,
11210211,
1010201000101011,
11210211,
11210211,
11211121,
200000100000200000100000500000000000000008000000,//34
#GOGOSTART
1010201110102000,
1010201110102000,
1010201110102011,
11212121,
1010201110102000,
1010201110102000,
1010201110102011,
11212122,
30304403,
00304303,
00303400,
3000300030001111,
1010201010201120,
22121011,
30303303,
0000300010111010,//50
#GOGOEND
7,
0008,
10201120,
10202120,
10201120,
10202120,
10201120,
10202122,
02202202,
02202022,
02202202,
02202202,
12202212,
12202212,
500000000000000000000000000000000000000008000000,
,//66
#GOGOSTART
1010201110201110,
1010201110201110,
1010201110201110,
2011101020111111,
1010201110201110,
1010201110201110,
1010201110201110,
1011102022112210,
30304403,
00304303,
00303400,
3000300030001111,
1010201010201120,
21121021,
30303403,
0000300010111010,//82
#GOGOEND
7,
,
,
8000000000001011,
12112112,
0020102010202022,
12222112,
01011200,
3,
#END

COURSE:Hard
LEVEL:5
BALLOON:18,32
SCOREINIT:560
SCOREDIFF:130
#START
,
,//2
#GOGOSTART
10201200,
10201200,
10211210,
11202120,
10201200,
10201200,
10211210,
11202120,//10
#GOGOEND
10201101,
01201101,
00201105,
000000000000000000000000000000000008000000000000,
10201101,
01201101,
00201101,
01102000,
10201101,
01201101,
00201101,
01102000,
10201101,
01201101,
00201105,
000000000000000000000000000000000008000000000000,
11201120,
1212,
11201120,
1212,
11201120,
1212,
11211020,
500000000000000000000000000000000008000000000000,//34
#GOGOSTART
10201200,
10201200,
10211210,
11202120,
10201200,
10201200,
10211210,
11202120,
30304003,
00304003,
0340,
3333,
11201120,
22201010,
30304003,
00301011,//50
#GOGOEND
7,
0008,
0202,
0202,
0202,
0202,
0202,
0202,
11011020,
11011010,
11011020,
11011010,
11011020,
11011010,
500000000000000000000000000000000000000000000008,
,//66
#GOGOSTART
10201200,
10201200,
10211210,
11202120,
10201200,
10201200,
10211210,
11202120,
30304003,
00304003,
0340,
3333,
11201120,
22201010,
30304003,
00301011,//82
#GOGOEND
7,
,
,
8,
10111022,
01011100,
10111022,
01011100,
3,
,
,
#END

COURSE:Normal
LEVEL:5
BALLOON:12,20
SCOREINIT:680
SCOREDIFF:160
#START
,
,//2
#GOGOSTART
10101100,
10101100,
10101110,
1110,
10101100,
10101100,
10101110,
1110,//10
#GOGOEND
10001100,
10102200,
10101100,
500000000000000000000000000008000000000000000000,
10001100,
10102200,
10101100,
500000000000000000000000000008000000000000000000,
10001100,
10102200,
10101100,
1,
10001100,
10102200,
10101100,
500000000000000000000000000008000000000000000000,
1212,
10201100,
1212,
1110,
1212,
10201100,
1111,
500000000000000000000000000008000000000000000000,//34
#GOGOSTART
10101100,
10101100,
10101110,
1110,
10101100,
10101100,
10101110,
1110,
3300,
3300,
3300,
33,
11101010,
22202020,
10101100,
11,//50
#GOGOEND
7,
0008,
,
,
2,
2,
2,
2,
12,
1,
12,
1,
12,
1,
500000000000000000000000000000000000000008000000,
,//66
#GOGOSTART
10101100,
10101100,
10101110,
1110,
10101100,
10101100,
10101110,
1110,
3300,
3300,
3300,
33,
11101010,
22202020,
10101100,
11,//82
#GOGOEND
7,
,
,
8,
10111000,
1,
11101000,
1,
3,
,
,
#END

COURSE:Easy
LEVEL:3
BALLOON:12,20
SCOREINIT:540
SCOREDIFF:150
#START
,
,//2
#GOGOSTART
10001100,
11,
10001100,
1011,
10001100,
11,
10001100,
1,//10
#GOGOEND
1110,
12,
1110,
500000000000000000000000000008000000000000000000,
1110,
12,
1110,
500000000000000000000000000008000000000000000000,
1110,
12,
1110,
1,
1110,
12,
1110,
500000000000000000000000000008000000000000000000,
1,
1,
1,
1110,
1,
1,
11,
500000000000000000000000000008000000000000000000,//34
#GOGOSTART
10001100,
11,
10001100,
1011,
10001100,
11,
10001100,
11,
3300,
3300,
3300,
33,
1,
1,
1110,
11,//50
#GOGOEND
7,
0008,
,
,
2,
2,
2,
2,
12,
1,
12,
1,
12,
1,
500000000000000000000000000000000000000008000000,
,//66
#GOGOSTART
10001100,
11,
10001100,
1011,
10001100,
11,
10001100,
11,
3300,
3300,
3300,
33,
1,
1,
1110,
11,//82
#GOGOEND
7,
,
,
8,
1,
1,
11,
11,
3,
,
,
#END
