//TJADB Project
TITLE:Kayou ~Flourishing Blossoms~
TITLEJA:花漾
SUBTITLE:--ZZAN Shin-way
SUBTITLEJA:~Flourishing Blossoms~
BPM:140
WAVE:Kayou Flourishing Blossoms.ogg
OFFSET:-1.821
DEMOSTART:30.952

COURSE:Edit
LEVEL:9
BALLOON:12
SCOREINIT:540
SCOREDIFF:120
#START
,
1000200200303000,
1000200200304000,
1000200200303000,
100000000000200000000200000000101010200000000000,
1102021210102011,
1102021210304000,
1102021210102011,
100100000200000200100200100000101010200000000000,
1122221210200020,
1110221201104000,
1122221210200020,
1110221201104000,
222200200200222200200200,
202020200000200000200000200000200200200000200000,
200000200200200000200200202020202020200000200000,
34303044,
#GOGOSTART
1211101220221030,
1121102210122030,
1112101220221030,
3030402110112030,
1211101220221030,
1121102210122030,
3030402110102012,
1210102212104030,
600000000000000000000000000008000000000000000000,
#GOGOEND
00000044,
0011101010002020,
100100000100100222200000,
0011202020101020,
10222044,
0022101010202010,
100000200000100222200000,
0011202020101020,
1000202020222020,
300000200200200000200000200000200200200000202020,
200200200000200000202020200200200000400000000000,
200000200200200000200000202020200200200000200000,
7008,
1101201202104022,
1101202101204022,
2221222120403040,
34434044,
#GOGOSTART
100200100100100000100200200000202020200000300000,
1121102210122030,
100100100200100000100200200000202020200000300000,
1210202110112030,
100200100100100000100200200000202020200000300000,
1121102210122030,
1121112122112211,
1212201020004040,
1010201210112011,
2011201120303000,
1010202120211021,
1021102110404010,
1011201211212022,
100222200300400300400300,
600000000000000000000000000000000000000000000008,
#GOGOEND
#END

COURSE:Oni
LEVEL:7
BALLOON:10
SCOREINIT:640
SCOREDIFF:170
#START
,
1000200200101000,
1000200200102000,
1000200200101000,
1000200200112000,
1002021010102000,
1002021010102000,
1002021010102000,
1002021010112000,
1022021010200020,
1010220201102000,
1022021010200020,
1010220201102000,
2220202022202020,
2220202020222020,
2022202022222020,
34303044,
#GOGOSTART
1111102010202010,
2222202010222010,
1111102010202010,
1010201210112000,
1111102010202010,
2222202010222010,
1010201110102010,
1210102010202010,
500000000000000000000000000008000000000000000000,
#GOGOEND
,
0011101010002020,
11011020,
0022202020101020,
10222022,
0011101010202010,
1212,
0022202020101020,
1000202020222020,
3022202020304030,
3022202020403040,
3022202020304030,
7008,
1010202110102000,
1010202110102000,
2211221120201020,
30004044,
#GOGOSTART
1111102010202010,
2222202010222010,
1111102010202010,
1010201210112000,
1111102010202010,
2222202010222010,
1122112211221122,
1122201020000000,
1010201210102010,
1011201110102000,
1010201210102010,
1011201110102000,
1010201210102010,
2022202022112211,
500000000000000000000000000000000000000000000008,
#GOGOEND
#END

COURSE:Hard
LEVEL:5
BALLOON:10
SCOREINIT:790
SCOREDIFF:238
#START
,
10200110,
10200120,
10200110,
10200120,
10201210,
10201120,
10201210,
10201120,
1110100020200020,
0202,
1110100020200020,
0202,
50000800,
50000800,
60000800,
3330,
#GOGOSTART
1110100010201000,
1110100020202000,
1110100010201000,
11201120,
1110100010201000,
1110100020202000,
11221120,
11221120,
50000800,//26
#GOGOEND
,
0011100010002020,
10222000,
0011100010002020,
10222020,
0011100010002020,
10222000,
0011100010002020,
10222220,
3003,
3003,
3003,
3,
11201110,
11201110,
1110222011102220,
3,//43
#GOGOSTART
1110100010201000,
1110100020202000,
1110100010201000,
11201120,
1110100010201000,
1110100020202000,
7008,
1120,
10221120,
11222020,
10221120,
11221120,
11221122,
1110222011102220,
500000000000000000000000000000000000000000000008,
#GOGOEND
,//59
,
,
#END

COURSE:Normal
LEVEL:4
BALLOON:8
#START
,
1001,
1002,
1001,
1002,
1011,
1012,
1011,
1012,
1110,
3400,
1110,
3400,
50000800,
50000800,
60000800,
3330,
#GOGOSTART
10101110,
1110,
10101110,
1120,
10101110,
1110,
20202220,
11102220,
50000800,//26
#GOGOEND
,
1120,
2210,
10101022,
2220,
1120,
2210,
10101022,
2220,
3003,
3003,
3003,
3,
10201110,
10201110,
11201120,
3,//43
#GOGOSTART
10101110,
1110,
10101110,
1120,
10101110,
1110,
7008,
1120,
10201110,
1201,
10201110,
1201,
10201120,
11112222,
500000000000000000000000000000000000000000000008,
#GOGOEND
,//59
,
,
#END

COURSE:Easy
LEVEL:3
BALLOON:4
#START
,
1001,
1002,
1001,
1002,
1011,
1012,
1011,
1012,
11,
3,
11,
3,
50000800,
50000800,
60000800,
3330,
#GOGOSTART
11,
1110,
11,
1122,
11,
1110,
22,
1122,
50000800,//26
#GOGOEND
,
1100,
2200,
1110,
2220,
1100,
2200,
1110,
2220,
3003,
3003,
3003,
3,
1210,
1210,
1212,
3,//43
#GOGOSTART
11,
1110,
11,
1122,
11,
1110,
7008,
1120,
1201,
1201,
1201,
1201,
1212,
33,
500000000000000000000000000000000000000000000008,
#GOGOEND
,//59
,
,
#END
