//TJADB Project
TITLE:Mahou no Kissaten
TITLEJA:魔法の喫茶店
SUBTITLE:--Mirai
BPM:168
WAVE:Mahou no Kissaten.ogg
OFFSET:-1.655
DEMOSTART:1.122

COURSE:Oni
LEVEL:8
SCOREINIT:430
SCOREDIFF:90
#START
#GOGOSTART
1000200020102011,
1010201000202220,
1000200220102010,
0011200210201120,
10202121,
0010201000202220,
10202121,
2020101010202011,
1000200020102011,
1020201000202220,
10202121,
0011202211202210,
1000200220102010,
0010201022202220,
10202121,
44040440,//16
#GOGOEND
1022201000202010,
2022201000222000,
1022201000202011,
24040444,
34040404,
04040403,
0022201010202050,
000000000000000000000008000000200000200200100000,
12011201,
12011221,
1020001010222010,
1020221010222020,
12011201,
12011221,
1020002010222010,
1020221010222020,
12011201,
12011221,
1020001010222010,
1020221010222020,
000000200000500000000000000000000000000000000008,
00211102,
000000200000500000000000000000000000000000000008,
0020221010202020,
1022201010202010,
1022201011202010,
1022201010202011,
2040004000222010,
1022201010202010,
1022201011202010,
1022201010202011,
2040004000222010,
1022201011202010,
1022201011202010,
1022201011202011,
2040004000222020,
000000200000500000000000000000000008000000100000,
01011225,
000000000000000000000000000000000000000000000008,
01222222,//56
#GOGOSTART
1000202211202011,
1010201000202220,
1000200220102010,
0011201210102010,
1000202211202010,
0010201110201220,
1000202211202010,
2222111122112222,
1000202211202011,
1010201000202220,
1000202211202010,
0011201212112211,
2211200020122010,
0010202211201220,
1000201120200010,
44040444,//72
#GOGOEND
1000200022200000,
0202,
1000200022200000,
0000200000202222,
1000200022200000,
0202,
1000200022200000,
0000200022222222,//80
#GOGOSTART
1000202211202011,
1010201000202222,
1111111110102210,
0011201022222222,
1000202211202010,
0010201212112211,
1000202211202011,
24040440,
1110202211202010,
2220004000404000,
1111202211202010,
1110002220112000,//92
#GOGOEND
#END

COURSE:Hard
LEVEL:5
#START
#GOGOSTART
10201121,
10110200,
10201021,
00200220,
10201121,
01110200,
10201121,
00200220,
10201121,
10110200,
10201121,
00200220,
10201121,
01110200,
10201101,
44040440,//16
#GOGOEND
10110202,
10110220,
10110202,
44040444,
34040404,
04040403,
02211225,
000000000000000000000008000000200000200000000000,
12011201,
12011201,
12011201,
12211020,
12011201,
12011201,
12011201,
12211020,
12011201,
12011201,
12011201,
12211021,
000000200000500000000000000000000000000000000008,
00102202,
000000200000500000000000000000000000000000000008,
,
10211020,
11211020,
10211020,
44040404,
10211020,
11211020,
10211020,
44040440,
10211020,
11211020,
10211020,
44040404,
10211021,
01011025,
000000000000000000000000000000000000000000000008,
,//56
#GOGOSTART
1000201110202010,
10210200,
1000201110202010,
00200220,
1000201110202010,
01110200,
1000201110002010,
,
1000201110202010,
10210200,
1000201110202010,
00200220,
1000201110202010,
01110200,
1000201110200010,
44040444,//72
#GOGOEND
1220,
0202,
1220,
00200220,
1220,
0202,
1220,
00200220,//80
#GOGOSTART
1000201110202010,
10210202,
1011101110202010,
0010200022202220,
1000201110202010,
01110200,
1000201110200010,
44040440,
1000201110200010,
44040440,
1000201110200010,
33044040,//92
#GOGOEND
,
,
#END

COURSE:Normal
LEVEL:4
BALLOON:20,4,4,5
#START
#GOGOSTART
1210,
10010200,
10201011,
,
10201001,
00010200,
10201011,
,
1210,
10010200,
10201011,
,
10201001,
00010200,
10201001,
600000000000000000000000000008000000000000000000,//16
#GOGOEND
10000110,
1,
10000110,
600000000000000000000000000008000000000000000000,
9,
09,
8,
,
10011000,
10011000,
10011000,
11011020,
10011000,
10011000,
10011000,
11011020,
10011000,
10011000,
10011000,
11011020,
500000000000000000000000000000000000000000000008,
0210,
500000000000000000000000000000000000000000000008,
,
1110,
11101000,
1110,
1,
1120,
11102000,
1120,
2,
1220,
11102000,
1220,
1,
10202001,
01011025,
000000000000000000000000000000000000000000000008,
,//56
#GOGOSTART
1210,
10010200,
10201011,
,
10201001,
00010200,
30403033,
,
1210,
10010200,
10201011,
,
10201001,
00010200,
30403003,
600000000000000000000000000008000000000000000000,//72
#GOGOEND
1,
1,
12,
1,
12,
12,
10202001,
,//80
#GOGOSTART
10201011,
10010200,
10201011,
,
10201011,
01010200,
30403303,
70000800,
30403303,
70000800,
30403303,
9009,//92
#GOGOEND
8,
,
#END

COURSE:Easy
LEVEL:3
BALLOON:15,3,3,4
#START
#GOGOSTART
1110,
10010100,
10101001,
,
10101001,
00010100,
10101001,
,
1110,
10020000,
10101001,
,
10101001,
00020200,
1110,
600000000000000000000000000008000000000000000000,//16
#GOGOEND
1001,
1,
1001,
600000000000000000000000000008000000000000000000,
9,
09,
8,
,
11,
1,
11,
2,
11,
1,
11,
2,
11,
1,
11,
2,
500000000000000000000000000000000000000000000008,
,
500000000000000000000000000000000000000000000008,
,
1110,
11,
1110,
2,
1110,
11,
1110,
2,
1110,
11,
1110,
2,
1110,
10001005,
000000000000000000000000000000000000000000000008,
,//56
#GOGOSTART
1110,
10010000,
10101001,
,
10101001,
00010100,
30303003,
,
1110,
10020000,
10101002,
,
10102001,
00010200,
3340,
600000000000000000000000000008000000000000000000,//72
#GOGOEND
1,
1,
12,
1,
1,
1,
12,
1,//80
#GOGOSTART
1210,
10020000,
10201002,
,
10201002,
00010200,
3430,
70000800,
3430,
70000800,
3430,
9009,//92
#GOGOEND
8,
,
#END
